<?xml version="1.0" standalone="no"?>
<!DOCTYPE svg PUBLIC "-//W3C//DTD SVG 1.1//EN" "http://www.w3.org/Graphics/SVG/1.1/DTD/svg11.dtd" >
<svg xmlns="http://www.w3.org/2000/svg">
<metadata>Generated by IcoMoon</metadata>
<defs>
<font id="jitsi" horiz-adv-x="512">
<font-face units-per-em="512" ascent="480" descent="-32" />
<missing-glyph horiz-adv-x="512" />
<glyph unicode="&#x20;" d="" horiz-adv-x="256" />
<glyph unicode="&#xe600;" d="M415.839 8.193h-72.442v129.327c-22.865 14.579-20.897 42.476-12.287 54.654 5.969 8.452 11.215 17.331 11.832 28.502 0.212 4.12 4.151 9.516 7.923 11.682 13.061 7.518 19.111 19.816 25.060 32.558 1.572 3.357 3.696 6.594 6.15 9.377 4.236 4.843 6.147 9.632 3.058 15.961-0.733 1.486 0.659 4.163 1.389 6.181 2.168 6.053 5.163 11.873 6.584 18.074 1.761 7.699 2.699 15.652 3.122 23.543 0.19 3.271-3.037 6.787-2.675 9.993 1.743 16.015-7.306 28.173-12.392 42.095-6.255 17.14-18.518 27.866-29.341 40.63-2.037 2.421-2.613 6.563-2.781 9.971-0.361 7.315-3.376 10.938-11.024 9.949-3.080-0.402-6.404-1.263-9.237-0.509-2.485 0.658-6.204 3.144-6.351 5.065-0.776 9.696-4.142 11.288-14.049 9.652-6.203-1.031-14.264 4.567-20.339 8.793-5.075 3.524-9.471 5.033-15.375 3.588-2.464-0.594-5.799-0.487-7.858 0.733-2.231 1.317-4.418 2.113-6.584 2.56v0.361c-0.488 0-0.988-0.085-1.467-0.138-0.488 0.053-0.976 0.138-1.454 0.138v-0.361c-2.178-0.447-4.363-1.243-6.584-2.56-2.083-1.22-5.405-1.326-7.859-0.733-5.925 1.445-10.299-0.063-15.375-3.588-6.106-4.226-14.143-9.824-20.335-8.793-9.908 1.636-13.296 0.043-14.060-9.652-0.149-1.922-3.865-4.408-6.35-5.065-2.846-0.755-6.16 0.106-9.249 0.509-7.635 0.988-10.651-2.634-11.012-9.949-0.169-3.41-0.743-7.551-2.782-9.971-10.811-12.764-23.077-23.49-29.342-40.63-5.085-13.922-14.136-26.081-12.382-42.095 0.35-3.206-2.868-6.721-2.698-9.993 0.435-7.89 1.37-15.844 3.133-23.543 1.421-6.202 4.418-12.021 6.594-18.074 0.733-2.017 2.115-4.693 1.392-6.181-3.102-6.329-1.189-11.118 3.058-15.961 2.444-2.782 4.567-6.019 6.138-9.376 5.937-12.742 12-25.040 25.063-32.558 3.758-2.166 7.708-7.561 7.931-11.682 0.605-11.171 5.851-20.050 11.82-28.502 9.165-12.977 10.597-43.475-17.108-57.344-38.337-19.168-77.041-37.678-116.312-54.816-24.595-10.749-36.946-28.8-41.119-54.096-1.274-7.666-2.931-15.269-3.94-22.981-1.507-11.478-3.92-34.937-3.92-34.937h415.839v40.193zM594.278 40.445h-72.445v-72.445h-73.74v72.445h-72.442v73.74h72.442v72.444h73.74v-72.444h72.445v-73.74z" horiz-adv-x="595" />
<glyph unicode="&#xe601;" d="M478.031 481.466h-409.912c-36.518 0-66.245-30.358-66.245-67.658v-270.103c0-37.269 29.727-67.623 66.245-67.623h17.913v-106.471l172.493 106.471h219.506c36.482 0 66.21 30.356 66.21 67.623v270.101c0 37.301-29.728 67.659-66.21 67.659zM248.25 146.943l-97.857-61.998v61.998h-79.13v263.628h403.594l0.032-263.627h-226.639zM119.531 357.777h302.563v-55.31h-302.563v55.31zM119.531 261.238h302.563v-55.308h-302.563v55.308z" horiz-adv-x="544" />
<glyph unicode="&#xe602;" d="M477.908 480.159h-411.421c-36.651 0-66.487-30.466-66.487-67.922v-271.093c0-37.425 29.836-67.892 66.487-67.892h411.421c36.62 0 66.458 30.467 66.458 67.892v271.093c0 37.457-29.838 67.922-66.458 67.922zM474.755 144.392h-405.113v264.611h405.082l0.031-264.611zM472.61 0.17c0-17.869-14.13-32.33-31.603-32.33h-337.614c-17.475 0-31.605 14.461-31.605 32.33v14.809c0 17.85 14.13 32.329 31.605 32.329h337.614c17.473 0 31.603-14.478 31.603-32.329v-14.809zM388.396 171.217l-151.334 151.303 56.206 56.158 151.273-151.301v-56.159z" horiz-adv-x="545" />
<glyph unicode="&#xe603;" d="M476.248 477.533h-409.344c-36.405 0-66.091-30.315-66.091-67.581v-375.36c0-37.236 29.686-67.55 66.091-67.55h409.343c36.468 0 66.157 30.313 66.157 67.55v375.361c0.001 37.266-29.689 67.579-66.156 67.579zM473.173 37.825h-403.070v368.911h403.007l0.063-368.911zM342.877 337.272h108.455v-283.379h-108.456v283.379zM214.336 273.001h108.456v-219.108h-108.456v219.108zM86.169 208.73h108.081v-154.839h-108.081v154.839z" horiz-adv-x="544" />
<glyph unicode="&#xe604;" d="M439.13 482.757c-81.772 0-148.286-66.518-148.286-148.306v-21.876h-224.454c-36.57 0-66.388-30.454-66.388-67.875v-206.384c0-37.389 29.819-67.839 66.388-67.839h282.076c36.632 0 66.459 30.45 66.459 67.839v206.384c0 35.027-26.134 63.948-59.52 67.504v22.247c0 46.183 37.577 83.745 83.726 83.745 46.152 0 83.731-37.56 83.731-83.745v-38.711c0-17.841 14.442-32.282 32.278-32.282 17.845 0 32.284 14.441 32.284 32.282v38.711c-0.001 81.788-66.514 148.306-148.293 148.306z" horiz-adv-x="590" />
<glyph unicode="&#xe605;" d="M0.759 320.807h138.767v159.899c0 0-39.017-4.051-88.090-55.817-49.069-51.764-50.676-104.082-50.676-104.082zM341.64 480.706h-169.842v-192.298l-171.040 0.125-0.757 1.734v-255.251c0-36.923 30.7-66.99 68.424-66.99h273.217c37.757 0 68.456 30.068 68.456 66.99v378.702c-0.002 36.921-30.699 66.988-68.457 66.988zM345.927 72.582h-286.424v46.394h286.423v-46.394zM345.927 169.401h-286.424v46.392h286.423v-46.392z" horiz-adv-x="410" />
<glyph unicode="&#xe606;" d="M476.95 481.193h-409.887c-36.483 0-66.209-30.356-66.209-67.672v-270.084c0-37.284 29.727-67.639 66.209-67.639h17.912v-106.445l172.483 106.445h219.493c36.482 0 66.208 30.355 66.208 67.639v270.084c0.001 37.316-29.725 67.672-66.207 67.672zM247.214 146.677l-97.885-62v62h-79.092v263.626h403.539l0.062-263.626h-226.625z" horiz-adv-x="545" />
<glyph unicode="&#xe607;" d="M354.757 310.047v22.227c0 81.545-66.331 147.875-147.875 147.875-81.546 0-147.876-66.329-147.876-147.875v-22.227c-33.113-3.697-59.007-32.458-59.007-67.304v-205.811c0-37.315 29.741-67.683 66.236-67.683h281.291c36.529 0 66.267 30.368 66.267 67.683v205.811c0 34.848-25.896 63.609-59.037 67.304zM206.882 415.769c46.022 0 83.493-37.472 83.493-83.494v-21.816h-166.989v21.816c0 46.022 37.441 83.494 83.495 83.494z" horiz-adv-x="414" />
<glyph unicode="&#xe608;" d="M613.039 358.427l-90.297-88.124v109.103c0 37.441-29.829 67.911-66.474 67.911h-318.101c-36.644 0-66.469-30.47-66.469-67.911v-305.329c0-37.425 29.826-67.894 66.469-67.894h318.101c36.645 0 66.474 30.469 66.474 67.894v86.562l96.954-77.070c24.451-17.791 48.463 2.608 48.463 20.292v242.327c0.001 17.682-28.015 35.754-55.122 12.24zM301.315 99.154c-70.723 0-128.065 57.342-128.065 128.066s57.341 128.065 128.065 128.065c70.724 0 128.067-57.341 128.067-128.065s-57.344-128.066-128.067-128.066zM296.894 299.788c-40.335 0-73.037-32.704-73.037-73.036 0-40.335 32.703-73.040 73.037-73.040 40.331 0 73.036 32.707 73.036 73.040 0 40.332-32.705 73.036-73.036 73.036zM296.894 260.049c-14.916 0-27.014-12.116-27.014-27.013 0-4.423-3.594-8.004-8.005-8.004-4.44 0-8.002 3.58-8.002 8.004 0 23.716 19.291 43.024 43.022 43.024 4.409 0 8.002-3.58 8.002-8.005-0.002-4.426-3.596-8.005-8.002-8.005z" horiz-adv-x="667" />
<glyph unicode="&#xe609;" d="M611.967 358.573l-90.149-87.978v108.924c0 3.831-0.333 7.574-0.951 11.216l36.847 32.673c13.174 11.705 14.42 31.9 2.684 45.12-11.737 13.203-31.902 14.436-45.136 2.7l-504.51-447.356c-13.204-11.705-14.421-31.903-2.699-45.104 6.303-7.118 15.091-10.769 23.925-10.769 7.538 0 15.107 2.652 21.195 8.050l47.92 42.49c10.498-7.313 23.13-11.616 36.796-11.616h317.596c36.55 0 66.33 30.404 66.33 67.769v86.434l96.83-76.978c24.408-17.73 48.383 2.624 48.383 20.292v241.914c0.001 17.653-27.966 35.693-55.062 12.22zM300.757 99.724c-29.405 0-56.283 10.108-77.763 26.899l41.465 36.767c10.431-5.832 22.425-9.193 35.235-9.193 40.267 0 72.916 32.649 72.916 72.918 0 9.71-1.948 18.928-5.428 27.357l43.423 38.501c11.424-19.13 18.006-41.484 18.006-65.391 0-70.607-57.246-127.855-127.853-127.855zM172.899 227.58c0 70.608 57.248 127.857 127.858 127.857 10.75 0 21.038-1.717 30.993-4.214l108.379 96.096h-302.237c-36.569 0-66.349-30.419-66.349-67.799v-259.037l102.947 91.272c-0.654 5.243-1.592 10.426-1.592 15.826z" horiz-adv-x="667" />
<glyph unicode="&#xe60a;" d="M560.562 469.433c-11.74 13.207-31.942 14.425-45.148 2.686l-504.653-447.452c-13.207-11.709-14.426-31.908-2.717-45.116 6.306-7.122 15.112-10.774 23.947-10.774 7.525 0 15.112 2.654 21.201 8.054l128.536 113.967c16.613-11.432 34.994-19.839 54.305-24.856-35.096-17.827-59.386-53.858-59.386-95.947h215.936c0 42.868-25.164 79.558-61.382 97.039 27.475 7.245 52.921 19.983 73.748 38.748 25.944 23.356 56.856 65.757 56.856 135.165v65.162c0 9.406-3.962 17.883-10.293 23.899l106.332 94.279c13.21 11.738 14.424 31.908 2.717 45.147zM395.767 240.946c0-78.993-58.825-114.961-113.495-114.961-17.607 0-34.329 3.608-49.142 10.393l27.868 24.708c7.366-2.295 15.178-3.566 23.305-3.566 44.678 0 80.992 36.344 80.992 80.99v15.050l30.474 27.021v-39.635zM365.295 396.933c0 44.649-36.313 80.992-80.992 80.992-44.649 0-80.992-36.344-80.992-80.992v-158.425c0-0.125 0-0.249 0-0.374l161.984 143.625v15.174zM175.398 213.345c-1.623 8.741-2.559 17.891-2.559 27.601v65.161c0 18.203-14.8 33.002-33.003 33.002-18.233 0-33.002-14.798-33.002-33.002v-65.161c0-28.599 5.558-53.513 14.549-75.466l54.015 47.865z" horiz-adv-x="569" />
<glyph unicode="&#xe60b;" d="M429.207 339.972c-18.298 0-33.123-14.826-33.123-33.091v-65.362c0-79.211-58.991-115.298-113.817-115.298-29.337 0-56.309 9.935-75.93 27.98-22.115 20.409-33.848 50.601-33.848 87.32v65.363c0 18.265-14.827 33.091-33.091 33.091s-33.091-14.826-33.091-33.091v-65.363c0-97.917 59.747-157.382 129.589-175.52-35.204-17.855-59.588-54.007-59.588-96.216h216.559c0 42.996-25.204 79.81-61.514 97.286 27.539 7.32 53.060 20.063 73.943 38.895 26.025 23.438 57.004 65.963 57.004 135.553v65.363c0 18.265-14.795 33.091-33.092 33.091zM284.286 157.86c-44.794 0-81.23 36.466-81.23 81.26v158.832c0 44.795 36.435 81.23 81.23 81.23 44.796 0 81.262-36.435 81.262-81.23v-158.832c0.002-44.796-36.464-81.26-81.262-81.26z" horiz-adv-x="569" />
<glyph unicode="&#xe60c;" d="M256.178 480c-141.228 0-256.178-114.919-256.178-256.239 0-141.195 114.95-256.113 256.178-256.113 141.257 0 256.207 114.919 256.207 256.113 0 141.32-114.95 256.239-256.207 256.239zM256.178 7.428c-119.272 0-216.335 97.063-216.335 216.333 0 119.398 97.063 216.429 216.335 216.429 119.3 0 216.428-97.031 216.428-216.429 0-119.27-97.127-216.333-216.428-216.333zM256.272 427.481c-112.377 0-203.754-91.375-203.754-203.657s91.375-203.657 203.754-203.657c112.219 0 203.594 91.377 203.594 203.658-0.002 112.283-91.375 203.658-203.594 203.658zM256.272 63.661c-88.358 0-160.226 71.902-160.226 160.162 0 88.262 71.868 160.162 160.226 160.162 88.262 0 160.098-71.901 160.098-160.162 0-88.26-71.837-160.162-160.098-160.162zM141.925 281.394l-0.477-0.699v-117.207l0.477-0.699c7.879-11.53 18.237-22.271 30.85-31.899l4.481-3.401v189.171l-4.481-3.368c-12.55-9.595-22.907-20.272-30.85-31.899zM207.819 332.865l-1.81-0.667v-220.18l1.81-0.699c9.341-3.527 19.444-5.97 30.883-7.466l3.112-0.381v237.207l-3.082-0.381c-11.119-1.398-21.508-3.876-30.913-7.435zM273.683 340.299l-3.082 0.381v-237.208l3.082 0.381c11.151 1.397 21.538 3.906 30.882 7.432l1.842 0.7v220.244l-1.842 0.667c-9.406 3.526-19.762 6.005-30.882 7.403zM370.49 281.394c-7.846 11.501-18.236 22.24-30.849 31.899l-4.447 3.43v-189.234l4.447 3.401c12.675 9.69 23.066 20.431 30.849 31.93l0.445 0.699v117.176l-0.445 0.7z" horiz-adv-x="513" />
<glyph unicode="&#xe60d;" d="M476.183 480.067h-410.238c-36.514 0-66.266-30.38-66.266-67.728v-376.179c0-37.33 29.752-67.712 66.266-67.712h410.24c36.545 0 66.298 30.383 66.298 67.712v376.179c-0.001 37.347-29.754 67.728-66.299 67.728zM473.067 39.401h-403.947v369.731h403.917l0.029-369.731zM284.871 255.938l45.886 48.433-38.652 38.654 158.197 42.52-42.49-158.195-37.678 37.647-45.917-48.433zM257.382 192.281l-45.883-48.433 38.65-38.652-158.194-42.522 42.489 158.194 37.678-37.645 45.917 48.435z" horiz-adv-x="545" />
<glyph unicode="&#xe60e;" d="M476.613 479.59h-410.332c-36.523 0-66.281-30.388-66.281-67.744v-376.262c0-37.324 29.759-67.71 66.281-67.71h410.33c36.553 0 66.312 30.388 66.312 67.711v376.262c0.001 37.356-29.758 67.744-66.311 67.744zM473.497 38.824h-404.039v369.798h404.009l0.031-369.798zM457.769 353.35l-45.897-48.445 38.663-38.661-158.232-42.515 42.5 158.232 37.687-37.67 45.926 48.445zM85.313 94.111l45.897 48.442-38.661 38.663 158.232 42.514-42.499-158.23-37.686 37.671-45.928-48.445z" horiz-adv-x="545" />
<glyph unicode="&#xe60f;" d="M256.518 480c141.785-0.094 256.207-114.737 256.018-256.332-0.188-141.878-114.483-256.114-256.271-256.144-141.595-0.034-256.456 114.737-256.267 256.050 0.187 142.319 114.483 256.551 256.518 256.426zM256.142 405.365c-100.395-0.063-181.478-81.146-181.416-181.507 0-100.553 80.894-181.541 181.416-181.667 100.582-0.156 181.791 81.147 181.728 181.886-0.125 100.426-81.209 181.351-181.727 181.287zM298.696 223.794h-0.252l-0.063 0.063h0.315l57.808 57.933c0 0-39.123 39.252-41.077 41.077l-58.877-58.091-59.507 59.098-41.012-41.139 44.407-44.409 13.337-14.531h0.251l0.126-0.127h-0.378l-57.744-57.903c0 0 39.125-39.282 41.012-41.106l58.88 58.123 59.504-59.13 41.077 41.203-44.408 44.41-13.4 14.531z" horiz-adv-x="513" />
<glyph unicode="&#xe610;" d="M33.245-31.998h513.97zM599.298 243.993c-67.851 67.947-135.707 135.83-203.683 203.62-3.122 3.045-6.934 5.857-10.933 7.327-15.618 5.7-31.74-6.404-31.864-23.837-0.127-33.832-0.063-67.666-0.063-101.483 0-2.14 0-4.31 0-6.982-3.062 0-5.435 0-7.81 0-53.123 0-106.167 0.031-159.243 0-17.589-0.016-27.43-9.855-27.43-27.461-0.030-46.389-0.030-92.75 0-139.173 0-17.9 9.841-27.74 27.805-27.74 52.887-0.031 105.712 0 158.555 0 2.438 0 4.811 0 8.123 0 0-2.688 0-4.687 0-6.654 0-33.397 0.125-66.851 0-100.248 0-11.529 4.623-20.12 15.121-24.774 10.558-4.685 19.68-1.405 27.615 6.469 67.978 68.039 136.016 136.017 203.994 204.087 11.745 11.716 11.62 25.056-0.187 36.847zM266.298 22.365c-1.313 9.81-11.028 16.058-13.964 17.713-4.405 2.593-9.185 2.906-12.841 2.906l-3.185-0.063-113.963 0.094c-28.021 0.062-49.234 21.087-49.296 48.858-0.094 88.563-0.094 177.161 0.032 265.755 0.029 26.991 21.335 48.265 48.484 48.406l117.961 0.031c16.713 0.015 25.647 8.060 27.24 24.618 0.5 6.482 0.405 13.026 0.219 19.586-0.564 19.869-9.685 28.74-29.553 28.756l-108.933-0.060c-7.747 0-15.463-0.281-23.18-1.172-57.76-6.577-103.778-56.825-104.841-114.399-0.656-31.944-0.498-63.902-0.342-95.859l0.093-30.101h-0.189c0 0-0.060-113.977 0.033-144.906 0.124-67.851 50.764-120.398 117.772-122.24 16.588-0.438 33.209-0.594 49.827-0.594h0.032l74.006 0.377c14.684 0 23.741 8.685 24.865 23.772 0.877 11.029 0.814 20.087-0.279 28.522z" horiz-adv-x="608" />
<glyph unicode="&#xe611;" d="M419.667 193.243c0-39.599-32.128-71.731-71.743-71.731-39.587 0-71.716 32.131-71.716 71.731 0 39.613 32.129 71.716 71.716 71.716 39.615-0.002 71.743-32.102 71.743-71.716zM686.385 353.243c-3.298 19.729-14.748 32.084-35.303 34.638-11.894 1.459-19.128 7.819-22.363 19.52-4.853 17.76-16.839 29.496-33.905 35.38-12.404 4.298-25.15 8.231-38.093 10.245-34.827 5.455-70.255 7.962-104.763 14.971-34.765 7.089-69.526 11.671-104.447 12.036-34.923-0.365-69.685-4.947-104.447-12.036-34.511-7.008-69.938-9.514-104.763-14.97-12.942-2.014-25.692-5.948-38.094-10.245-17.065-5.884-29.052-17.62-33.907-35.38-3.234-11.702-10.467-18.061-22.361-19.52-20.552-2.554-32.003-14.91-35.3-34.639-3.394-20.205-5.869-40.601-8.405-60.942-1.364-11.055 3.203-16.288 15.193-16.224 60.419 0.349 120.846 0.349 181.298 0.048 12.023-0.064 16.558 4.694 16.716 16.669 0.381 28.685-2.315 55.947-23.568 78.309-3.52 3.695-5.424 12.64-3.363 16.923 2.031 4.25 20.428 8.358 22.996 8.358 21.664-0.095 21.569-0.111 24.709-21.712 0.602-4.14 1.269-9.23 3.901-11.926 15.16-15.431 10.626-33.353 3.617-48.817-15.195-33.57-30.768-67.413-50.434-98.435-36.729-57.916-52.205-80.372-99.34-130.422-29.337-31.147-34.286-50.844-34.286-68.733 0-35.495 20.519-48.372 68.574-48.372 90.807 0 130.454 0.158 221.264 0.158 90.807 0 130.452-0.158 221.264-0.158 48.051 0 68.571 12.876 68.571 48.372 0 17.889-4.949 37.587-34.287 68.733-47.132 50.050-62.611 72.506-99.339 130.422-19.666 31.021-35.238 64.865-50.43 98.435-7.010 15.464-11.546 33.385 3.617 48.817 2.632 2.697 3.298 7.787 3.901 11.926 3.14 21.601 3.045 21.617 24.706 21.712 2.57 0 20.966-4.108 22.996-8.358 2.063-4.283 0.159-13.227-3.361-16.923-21.251-22.362-23.949-49.625-23.568-78.309 0.158-11.974 4.694-16.733 16.715-16.669 60.454 0.302 120.877 0.302 181.3-0.048 11.987-0.063 16.554 5.171 15.192 16.224-2.538 20.343-5.009 40.737-8.403 60.942zM479.995 191.752c0-73.157-59.312-132.468-132.485-132.468s-132.487 59.31-132.487 132.468c0 73.159 59.312 132.468 132.487 132.468 73.171 0 132.485-59.31 132.485-132.468z" horiz-adv-x="695" />
<glyph unicode="&#xe612;" d="M155.131 15.215c0-26.065-21.103-47.215-47.2-47.215h-60.703c-26.098 0-47.229 21.15-47.229 47.215v417.835c0 26.079 21.133 47.229 47.229 47.229h60.701c26.097 0 47.2-21.15 47.2-47.229v-417.835zM538.559 480.28h-280.993c-36.459 0-66.165-30.337-66.165-67.626v-377.058c0-37.259 29.706-67.596 66.165-67.596h280.993c36.49 0 66.197 30.337 66.197 67.596v377.058c0 37.29-29.707 67.626-66.197 67.626zM264.915 413.453h266.327l0.031-71.649h-266.358v71.649zM321.627 25.814h-56.776v56.776h56.776v-56.776zM321.627 128.374h-56.776v56.777h56.776v-56.777zM321.691 231.878h-56.776v56.777h56.776v-56.777zM426.45 25.814h-56.776v56.776h56.776v-56.776zM426.45 128.374h-56.776v56.777h56.776v-56.777zM426.514 231.878h-56.778v56.777h56.778v-56.777zM531.274 25.814h-56.778v56.776h56.778v-56.776zM531.274 128.374h-56.778v56.777h56.778v-56.777zM531.335 231.878h-56.777v56.777h56.777v-56.777z" horiz-adv-x="605" />
<glyph unicode="&#xe613;" d="M561.722 469.507c-11.797 13.24-32.066 14.495-45.37 2.697l-504.135-446.718c-13.305-11.734-14.495-32.065-2.73-45.338 6.337-7.153 15.154-10.825 24.063-10.825 7.562 0 15.186 2.7 21.272 8.098l65.023 57.61c45.371-40.922 105.284-66.082 171.237-66.050 141.408 0.031 255.457 113.985 255.644 255.486 0.063 54.967-17.341 105.683-46.75 147.36l59.044 52.313c13.241 11.763 14.499 32.065 2.702 45.368zM472.211 224.909c0.064-100.461-80.948-181.601-181.255-181.476-43.78 0.062-83.786 15.575-115.031 41.284l165.638 146.755v-36.588c0.536-30.497 16.348-46.090 47.472-46.846 30.998 0.756 46.843 16.382 47.565 46.878v20.548h-36.113v-23.75c0.125-2.321-0.282-5.303-1.255-8.974-0.625-1.63-1.724-3.010-3.262-4.046-1.599-1.286-3.923-1.914-6.934-1.914-5.272 0.155-8.566 2.134-9.913 5.961-0.534 1.756-0.974 3.452-1.254 5.082-0.127 1.443-0.188 2.766-0.188 3.893v71.755l21.238 18.817c0.108-0.216 0.226-0.425 0.315-0.651 0.974-3.233 1.381-6.399 1.255-9.538v-18.386h36.113v15.060c-0.123 15.623-4.543 27.35-13.181 35.224l20.356 18.034c17.894-28.028 28.401-61.293 28.433-97.122zM119.897 165.735c-6.306 18.512-9.913 38.279-9.913 58.957-0.095 100.118 80.792 181.005 180.973 181.067 28.426 0 55.156-6.651 79.067-18.199l58.923 52.211c-39.722 25.476-86.879 40.409-137.646 40.474-141.689 0.091-255.677-113.865-255.894-255.838-0.063-39.783 9.318-77.34 25.569-110.941l58.924 52.269zM194.288 313.010h-48.757v-124.529l36.115 32.035v0.344h0.407l58.86 52.209c0 0.282 0.061 0.47 0.061 0.755 0.376 26.949-15.184 40.034-46.687 39.185zM202.98 280.759c0.971-1.384 1.537-3.235 1.661-5.556 0.156-2.226 0.219-4.8 0.219-7.623 0.125-5.458-0.345-9.915-1.475-13.493-1.476-3.797-5.492-5.678-12.079-5.678h-9.662v37.022h7.655c3.921 0 6.933-0.341 9.036-1.095 2.198-0.787 3.734-1.976 4.645-3.577z" horiz-adv-x="570" />
<glyph unicode="&#xe614;" d="M290.639 480.854c142.428-0.095 257.404-115.258 257.213-257.498-0.189-142.524-115.036-257.277-257.435-257.308-142.27-0.031-257.656 115.259-257.466 257.211 0.219 142.968 115.005 257.719 257.688 257.595zM290.289 405.878c-100.882-0.061-182.333-81.516-182.239-182.332 0-101.009 81.262-182.368 182.239-182.492 101.009-0.158 182.587 81.515 182.524 182.712-0.126 100.884-81.578 182.175-182.524 182.112zM143.849 312.453h49.098c31.721 0.884 47.392-12.259 47.013-39.431 0.127-9.541-1.106-17.441-3.728-23.761-3.002-6.254-9.353-10.994-19.083-14.090v-0.41c14.186-3.13 21.516-11.787 21.99-25.973v-28.844c0-5.623 0.127-11.406 0.379-17.378 0.41-6.002 1.517-10.49 3.348-13.522h-35.923c-1.863 3.032-3.064 7.519-3.57 13.522-0.506 5.971-0.727 11.755-0.569 17.378v26.161c0 4.801-1.107 8.276-3.286 10.49-2.338 2.053-6.351 3.095-12.006 3.095h-7.299v-70.645h-36.365v163.41zM180.214 247.43h9.732c6.636 0 10.679 1.897 12.166 5.688 1.138 3.602 1.611 8.152 1.484 13.585 0 2.908-0.063 5.434-0.221 7.709-0.126 2.337-0.696 4.202-1.676 5.623-0.916 1.579-2.463 2.781-4.676 3.57-2.117 0.727-5.149 1.106-9.1 1.106h-7.709v-37.282zM249.186 312.453h81.041v-31.343h-44.675v-32.794h39.051v-31.343h-39.051v-36.555h46.411v-31.375h-82.779v163.409zM341.253 268c0.158 15.891 4.708 27.771 13.712 35.703 8.72 7.645 20.093 11.468 34.091 11.468 14.123 0 25.56-3.823 34.312-11.5 8.91-7.899 13.46-19.811 13.586-35.704v-15.166h-36.365v18.516c0.127 3.096-0.285 6.319-1.264 9.604-0.632 1.579-1.738 2.969-3.286 4.107-1.611 0.757-3.949 1.202-6.982 1.202-5.308-0.158-8.625-1.928-9.983-5.309-1.106-3.286-1.611-6.508-1.454-9.604v-80.978c0-1.137 0.063-2.433 0.19-3.886 0.284-1.705 0.727-3.412 1.264-5.116 1.358-3.887 4.676-5.878 9.983-6.003 3.034 0 5.372 0.63 6.982 1.896 1.549 1.075 2.654 2.433 3.286 4.108 0.98 3.665 1.391 6.665 1.264 9.003v23.918h36.365v-20.664c-0.726-30.774-16.682-46.507-47.897-47.235-31.342 0.727-47.265 16.461-47.803 47.171v74.469z" horiz-adv-x="571" />
<glyph unicode="&#xe615;" d="M508.412 2.883c-1.026 7.687-2.666 15.269-3.93 22.923-4.167 25.229-16.503 43.252-41.031 53.961-39.187 17.099-77.551 36.060-116.055 54.697-27.843 13.512-26.204 44.26-17.048 57.207 5.945 8.44 11.172 17.286 11.788 28.426 0.222 4.113 4.151 9.495 7.909 11.647 13.035 7.518 19.081 19.782 25.010 32.491 1.555 3.348 3.69 6.594 6.133 9.361 4.236 4.834 6.132 9.618 3.039 15.921-0.717 1.485 0.666 4.167 1.4 6.183 2.152 6.013 5.142 11.838 6.56 18.022 1.778 7.669 2.699 15.612 3.126 23.487 0.187 3.262-3.022 6.764-2.681 9.975 1.741 15.956-7.279 28.101-12.37 41.988-6.233 17.099-18.464 27.81-29.26 40.553-2.033 2.392-2.613 6.526-2.786 9.943-0.36 7.294-3.366 10.898-11.002 9.906-3.055-0.394-6.386-1.248-9.205-0.496-2.478 0.667-6.203 3.144-6.338 5.056-0.769 9.668-4.132 11.258-14.008 9.618-6.182-1.025-14.228 4.577-20.292 8.78-5.072 3.521-9.445 5.023-15.341 3.588-2.457-0.598-5.772-0.495-7.858 0.717-2.221 1.332-4.387 2.119-6.559 2.562v0.374c-0.478-0.016-0.991-0.102-1.469-0.154-0.477 0.051-0.956 0.137-1.434 0.154v-0.375c-2.185-0.444-4.375-1.231-6.578-2.562-2.066-1.213-5.381-1.316-7.84-0.718-5.911 1.434-10.285-0.068-15.342-3.588-6.079-4.202-14.108-9.805-20.292-8.781-9.873 1.641-13.255 0.052-14.024-9.618-0.154-1.912-3.843-4.389-6.338-5.056-2.834-0.752-6.149 0.102-9.223 0.495-7.618 0.992-10.625-2.613-10.985-9.906-0.169-3.416-0.751-7.551-2.784-9.943-10.794-12.743-23.025-23.454-29.278-40.553-5.058-13.886-14.094-26.031-12.335-41.987 0.343-3.211-2.872-6.714-2.7-9.975 0.445-7.875 1.368-15.818 3.127-23.487 1.418-6.184 4.407-12.010 6.576-18.022 0.719-2.016 2.121-4.698 1.384-6.183-3.091-6.303-1.179-11.087 3.058-15.921 2.427-2.767 4.56-6.013 6.115-9.361 5.929-12.709 11.974-24.974 25.007-32.491 3.76-2.152 7.689-7.534 7.929-11.647 0.596-11.14 5.825-19.986 11.785-28.426 9.141-12.947 10.573-43.369-17.081-57.207-38.228-19.132-76.871-37.6-116.021-54.697-24.564-10.709-36.863-28.731-41.032-53.961-1.263-7.656-2.939-15.238-3.929-22.923-1.505-11.464-3.912-34.883-3.912-34.883h512.306c-0.001 0-2.39 23.419-3.894 34.883z" horiz-adv-x="513" />
<glyph unicode="&#xe616;" d="M513.087 224.534c0-141.673-114.855-256.526-256.554-256.526-141.674 0-256.534 114.851-256.534 256.526 0 141.692 114.861 256.553 256.534 256.553 141.7 0 256.554-114.861 256.554-256.553zM256.534-31.993c67.863 0 129.556 26.356 175.437 69.37-4.858 5.825-11.276 10.557-19.557 14.171-29.467 12.873-58.313 27.128-87.267 41.128-20.935 10.161-19.702 33.293-12.82 43.029 4.471 6.346 8.402 12.999 8.864 21.373 0.166 3.084 3.12 7.142 5.945 8.761 9.802 5.652 14.349 14.873 18.802 24.43 1.17 2.515 2.777 4.945 4.615 7.038 3.185 3.622 4.612 7.218 2.286 11.971-0.543 1.104 0.502 3.12 1.053 4.637 1.619 4.534 3.866 8.901 4.93 13.558 1.335 5.774 2.029 11.74 2.351 17.661 0.14 2.451-2.272 5.092-2.017 7.493 1.31 12.011-5.471 21.136-9.299 31.579-4.688 12.857-13.885 20.91-22.002 30.485-1.529 1.812-1.964 4.919-2.094 7.476-0.269 5.49-2.53 8.207-8.272 7.462-2.299-0.3-4.805-0.943-6.921-0.378-1.864 0.494-4.663 2.362-4.767 3.802-0.577 7.269-3.106 8.465-10.533 7.238-4.648-0.772-10.697 3.429-15.257 6.601-3.816 2.646-7.104 3.777-11.534 2.69-1.849-0.45-4.341-0.373-5.908 0.547-1.671 0.988-3.303 1.592-4.933 1.919v0.276c-0.36-0.007-0.745-0.065-1.104-0.108-0.361 0.044-0.72 0.103-1.078 0.108v-0.276c-1.645-0.327-3.287-0.931-4.945-1.919-1.556-0.918-4.046-0.996-5.899-0.547-4.443 1.087-7.724-0.044-11.532-2.69-4.578-3.173-10.611-7.373-15.259-6.601-7.431 1.226-9.97 0.031-10.547-7.238-0.109-1.439-2.897-3.308-4.758-3.802-2.139-0.565-4.624 0.077-6.944 0.378-5.728 0.745-7.994-1.971-8.258-7.462-0.131-2.555-0.565-5.665-2.095-7.476-8.111-9.575-17.308-17.629-22.009-30.485-3.814-10.443-10.602-19.568-9.285-31.579 0.256-2.401-2.152-5.042-2.023-7.493 0.327-5.923 1.020-11.888 2.351-17.661 1.065-4.656 3.313-9.024 4.945-13.558 0.547-1.516 1.587-3.531 1.041-4.637-2.325-4.754-0.894-8.351 2.291-11.971 1.837-2.094 3.437-4.523 4.612-7.038 4.45-9.555 8.996-18.779 18.798-24.43 2.827-1.619 5.78-5.676 5.952-8.761 0.457-8.374 4.387-15.027 8.869-21.373 6.873-9.735 7.951-32.623-12.837-43.029-28.76-14.386-57.8-28.255-87.251-41.128-8.285-3.615-14.704-8.347-19.561-14.169 45.88-43.015 107.569-69.372 175.422-69.372z" horiz-adv-x="513" />
<glyph unicode="&#xe617;" d="M32.887 258.374c5.026 4.679 12.994 10.886 21.642 16.349 25.668 16.31 54.057 25.449 83.415 32.066 24.381 5.475 49.123 8.444 74.033 10.101 27.877 1.877 55.779 1.89 83.696 0.399 19.972-1.092 39.843-3.251 59.56-6.606 21.978-3.753 43.519-8.997 64.392-16.875 12.209-4.587 24.086-10.053 35.267-16.786 14.858-8.946 28.276-19.612 38.61-33.674 10.409-14.151 15.861-30.204 16.914-47.696 0.873-13.701 0.358-27.349-2.828-40.794-1.438-6.041-4.113-11.567-8.277-16.193-5.709-6.324-13.212-8.51-21.386-8.818-10.231-0.334-20.205 2.057-30.18 4.113-19.456 3.985-38.918 8.123-58.349 12.364-7.069 1.517-14.344 2.546-20.825 6.298-11.154 6.478-17.223 15.887-17.017 28.892 0.129 8.435 1.108 16.891 1.235 25.348 0.156 12.505-4.962 22.581-15.449 29.521-7.197 4.769-15.347 7.456-23.726 9.333-20.206 4.523-40.693 5.089-61.281 5.025-14.411-0.063-28.791-0.834-43.047-3.071-9.974-1.581-19.781-3.906-28.866-8.507-12.159-6.182-19.677-15.732-20.036-29.676-0.22-8.175 0.487-16.401 0.964-24.575 0.321-5.911-0.040-11.723-2.648-17.144-4.63-9.692-12.468-15.836-22.685-18.482-11.323-2.933-22.802-5.27-34.252-7.611-19.051-3.882-38.108-7.684-57.208-11.259-7.263-1.387-14.627-0.976-21.567 1.801-9.371 3.728-14.462 11.387-17.069 20.668-3.548 12.699-3.921 25.757-3.483 38.865 0.45 13.52 2.942 26.618 9.202 38.803 4.897 9.532 11.246 17.977 21.246 27.821z" horiz-adv-x="513" />
<glyph unicode="&#xe618;" d="M398.543 56.151c-0.029 0.082-0.060 0.164-0.080 0.243-35.7-22.819-75.891-34.966-117.012-34.966-0.007 0-0.010 0-0.014 0-61.26 0-118.75 26.386-157.734 72.37-49.889 58.849-67.126 164.977-36.511 213.894 2.002-0.831 3.938-1.616 5.84-2.387 6.793-2.756 13.207-5.358 21.153-9.548 3.031-1.601 6.169-2.406 9.337-2.406 5.857 0 11.3 2.824 14.924 7.743 3.907 5.309 5.156 12.389 3.269 18.476l-1.762 5.705c-5.344 17.295-10.862 35.177-17.106 52.539-4.992 13.882-11.2 31.163-29.613 31.163-6.028 0-13.019-1.828-23.365-6.102-22.147-9.159-35.529-14.981-57.267-24.905-7.551-3.444-12.617-11.349-12.601-19.672 0.014-7.921 4.496-14.668 11.988-18.058 9.104-4.128 15.268-6.858 21.734-9.723l5.343-2.377c-50.969-129.551 12.401-263.229 105.657-319.606 41.749-25.237 89.25-38.57 137.385-38.57h0.021c51.36 0 102.781 15.55 142.25 42.599-15.865 14.401-22.783 34.584-25.836 43.586zM549.101 105.045c-9.057 4.288-15.178 7.129-21.611 10.122l-5.248 2.446c53.224 128.634-7.784 263.401-100.034 321.394-42.68 26.832-91.562 41.016-141.358 41.016-52.424 0-103.205-15.297-142.983-43.083l-2.692-1.882c15.798-13.782 22.93-33.394 26.459-43.205 36.463 23.97 77.838 36.704 119.947 36.704 62.704 0 121.071-27.392 160.147-75.158 48.841-59.724 64.219-166.128 32.749-214.508-1.995 0.868-3.908 1.692-5.812 2.499-6.736 2.88-13.102 5.59-20.977 9.911-3.101 1.712-6.322 2.577-9.606 2.577-5.793 0-11.2-2.779-14.845-7.634-3.906-5.217-5.239-12.216-3.483-18.257l1.639-5.651c5.048-17.423 10.265-35.428 16.206-52.921 4.794-14.119 10.757-31.691 29.589-31.691 5.921 0 12.788 1.712 22.94 5.7 22.175 8.719 35.66 14.3 57.704 23.889 7.595 3.312 12.801 11.126 12.929 19.447 0.14 7.911-4.222 14.75-11.663 18.284z" horiz-adv-x="561" />
<glyph unicode="&#xe619;" d="M23.497 480.85c230.617 0 276.897 0 507.512 0 17.96 0 26.678-12.98 26.678-28.98-0.29-151.63-0.163-303.244-0.225-454.904 0-21.992-6.601-28.529-28.851-28.529-221.536-0.063-278.226-0.063-499.776 0-22.267 0-28.899 6.505-28.899 28.529-0.049 151.629 0.242 304.036-0.046 455.664-0.017 13.105 5.651 26.88 23.608 28.219zM155.702 225.149c0-59.522-0.036-86.084 0.029-145.625 0.018-25.022 5.604-30.525 31.060-30.525 116.676 0 68.537 0 185.261 0 23.538 0 29.625 5.991 29.625 29.048 0.063 119.555 0.063 173.169 0 292.695 0 24.069-5.344 29.495-28.884 29.495-117.661 0.050-70.422 0.050-188.078 0-23.522 0-28.965-5.522-28.983-29.445-0.065-59.554-0.029-86.105-0.029-145.643zM76.972 419.283c-37.465-0.031-33.343 2.979-33.422-33.343-0.1-31.975-3.527-31.767 31.264-31.686 36.499 0.097 33.6-1.882 33.651 33.777 0 33.861 2.043 31.298-31.493 31.251zM481.822 419.283c-35.579-0.017-32.78 3.092-32.875-32.682-0.065-33.651-2.254-32.346 32.264-32.346 36.544 0 32.649-1.015 32.649 33.119-0.001 34.323 3.478 31.955-32.038 31.909zM108.414 61.204c0.18 36.547 2.32 33.457-33.679 33.585-34.052 0.096-31.285 1.382-31.203-31.655 0.065-36.738-3.477-33.26 33.537-33.325 33.021-0.033 31.571-3.028 31.346 31.394zM513.859 62.2c0.067 34.167 3.221 32.652-31.649 32.589-35.066-0.066-33.328 2.897-33.264-32.652 0.065-35.322-2.192-32.361 31.878-32.329 35.998 0.066 33.101-3.349 33.034 32.392zM513.859 171.038c0 35.275 3.61 33.421-33.743 33.261-0.449 0-0.937 0-1.419 0-29.688 0-29.688 0-29.688-29.012 0-38.961-3.221-34.968 34.647-35.098 33.038-0.193 30.269-1.546 30.202 30.849zM75.653 244.936c34.147-0.082 32.907-2.784 32.812 31.491-0.097 35.564 2.448 32.459-33.007 32.505-34.953 0.050-31.907 2.352-31.942-31.989-0.031-33.715-2.85-32.231 32.138-32.007zM480.632 244.936c36.256-0.129 33.295-2.302 33.228 32.247 0 34.279 3.092 31.769-32.134 31.749-35.098-0.014-32.843 3.026-32.749-32.747 0.066-31.25 0.034-31.25 31.655-31.25zM75.2 140.19c35.502 0 33.329-3.284 33.233 32.264-0.082 31.847-0.018 31.75-32.507 31.878-35.403 0.129-32.411 1.337-32.411-31.878 0.018-34.584-2.959-32.394 31.684-32.264z" horiz-adv-x="558" />
<glyph unicode="&#xe61a;" d="M1.94 73.418h110.13v-105.418h-110.13v105.418zM154.409 175.072h110.135v-207.072h-110.135v207.072zM306.882 276.706h110.134v-308.706h-110.134v308.706zM459.342 378.358h110.132v-410.358h-110.132v410.358zM611.814 480h110.131v-512h-110.131v512z" horiz-adv-x="722" />
</font>
</defs>
</svg>
