<?xml version="1.0" standalone="no"?>
<!DOCTYPE svg PUBLIC "-//W3C//DTD SVG 1.1//EN" "http://www.w3.org/Graphics/SVG/1.1/DTD/svg11.dtd" >
<svg xmlns="http://www.w3.org/2000/svg">
<metadata>Generated by IcoMoon</metadata>
<defs>
<font id="jitsi" horiz-adv-x="1024">
<font-face units-per-em="1024" ascent="960" descent="-64" />
<missing-glyph horiz-adv-x="1024" />
<glyph unicode="&#x20;" horiz-adv-x="512" d="" />
<glyph unicode="&#xe600;" glyph-name="addNew-V5" horiz-adv-x="1189" d="M831.678 16.386h-144.885v258.653c-45.729 29.159-41.794 84.953-24.574 109.307 11.939 16.905 22.43 34.662 23.663 57.004 0.423 8.241 8.303 19.031 15.847 23.364 26.122 15.037 38.223 39.632 50.12 65.116 3.143 6.714 7.392 13.187 12.3 18.753 8.471 9.686 12.295 19.264 6.115 31.922-1.466 2.972 1.318 8.326 2.779 12.362 4.335 12.106 10.326 23.745 13.169 36.148 3.522 15.399 5.398 31.305 6.244 47.086 0.379 6.543-6.074 13.574-5.351 19.986 3.486 32.030-14.612 56.346-24.785 84.189-12.509 34.28-37.036 55.732-58.681 81.26-4.074 4.843-5.225 13.125-5.563 19.942-0.722 14.63-6.752 21.875-22.048 19.898-6.161-0.805-12.808-2.526-18.474-1.019-4.969 1.316-12.408 6.288-12.702 10.13-1.553 19.393-8.285 22.577-28.098 19.305-12.406-2.062-28.527 9.134-40.677 17.587-10.15 7.049-18.941 10.065-30.751 7.175-4.928-1.187-11.598-0.973-15.716 1.466-4.461 2.634-8.837 4.226-13.169 5.119v0.722c-0.975 0-1.976-0.17-2.934-0.276-0.975 0.106-1.951 0.276-2.908 0.276v-0.722c-4.355-0.893-8.726-2.485-13.169-5.119-4.167-2.441-10.811-2.652-15.718-1.466-11.851 2.89-20.598-0.126-30.751-7.175-12.212-8.453-28.287-19.648-40.671-17.587-19.816 3.272-26.591 0.085-28.119-19.305-0.299-3.844-7.73-8.816-12.7-10.13-5.692-1.509-12.32 0.212-18.497 1.019-15.27 1.976-21.302-5.269-22.024-19.898-0.338-6.819-1.486-15.102-5.565-19.942-21.622-25.528-46.154-46.98-58.684-81.26-10.171-27.843-28.271-52.161-24.765-84.189 0.699-6.412-5.736-13.443-5.395-19.986 0.87-15.78 2.74-31.687 6.267-47.086 2.843-12.403 8.835-24.042 13.187-36.148 1.466-4.033 4.229-9.387 2.784-12.362-6.203-12.658-2.379-22.236 6.115-31.922 4.887-5.565 9.134-12.039 12.277-18.753 11.874-25.484 24.001-50.079 50.125-65.116 7.516-4.332 15.417-15.122 15.863-23.364 1.21-22.342 11.701-40.099 23.64-57.004 18.33-25.954 21.194-86.95-34.216-114.687-76.673-38.336-154.083-75.357-232.624-109.632-49.189-21.498-73.891-57.6-82.238-108.192-2.549-15.331-5.862-30.539-7.88-45.961-3.014-22.956-7.839-69.874-7.839-69.874h831.678v80.386zM1188.556 80.89h-144.89v-144.89h-147.481v144.89h-144.885v147.481h144.885v144.888h147.481v-144.888h144.89v-147.481z" />
<glyph unicode="&#xe601;" glyph-name="chat" horiz-adv-x="1088" d="M956.063 962.932h-819.824c-73.036 0-132.489-60.717-132.489-135.316v-540.205c0-74.537 59.453-135.246 132.489-135.246h35.826v-212.941l344.987 212.941h439.011c72.964 0 132.42 60.711 132.42 135.246v540.202c0 74.602-59.456 135.318-132.42 135.318zM496.5 293.887l-195.714-123.997v123.997h-158.261v527.257h807.189l0.064-527.255h-453.278zM239.062 715.554h605.126v-110.62h-605.126v110.62zM239.062 522.476h605.126v-110.615h-605.126v110.615z" />
<glyph unicode="&#xe602;" glyph-name="share-desktop" horiz-adv-x="1089" d="M955.816 960.317h-822.841c-73.303 0-132.975-60.931-132.975-135.844v-542.186c0-74.851 59.672-135.785 132.975-135.785h822.841c73.239 0 132.916 60.934 132.916 135.785v542.186c0 74.913-59.677 135.844-132.916 135.844zM949.51 288.784h-810.226v529.223h810.164l0.062-529.223zM945.219 0.34c0-35.738-28.261-64.66-63.207-64.66h-675.228c-34.949 0-63.209 28.921-63.209 64.66v29.618c0 35.7 28.261 64.657 63.209 64.657h675.228c34.946 0 63.207-28.957 63.207-64.657v-29.618zM776.792 342.434l-302.669 302.605 112.411 112.316 302.545-302.602v-112.318z" />
<glyph unicode="&#xe603;" glyph-name="presentation" horiz-adv-x="1088" d="M952.495 955.065h-818.689c-72.81 0-132.183-60.63-132.183-135.162v-750.719c0-74.473 59.372-135.101 132.183-135.101h818.686c72.936 0 132.314 60.625 132.314 135.101v750.722c0.003 74.532-59.378 135.159-132.311 135.159zM946.346 75.651h-806.14v737.822h806.015l0.126-737.822zM685.753 674.544h216.911v-566.758h-216.911v566.758zM428.672 546.002h216.911v-438.216h-216.911v438.216zM172.339 417.46h216.161v-309.677h-216.161v309.677z" />
<glyph unicode="&#xe604;" glyph-name="security" horiz-adv-x="1179" d="M878.259 965.513c-163.545 0-296.573-133.036-296.573-296.612v-43.752h-448.909c-73.14 0-132.777-60.909-132.777-135.751v-412.768c0-74.777 59.637-135.678 132.777-135.678h564.152c73.265 0 132.919 60.901 132.919 135.678v412.768c0 70.054-52.267 127.895-119.040 135.009v44.494c0 92.367 75.154 167.49 167.451 167.49 92.305 0 167.462-75.12 167.462-167.49v-77.422c0-35.681 28.883-64.564 64.556-64.564 35.69 0 64.569 28.883 64.569 64.564v77.422c-0.003 163.576-133.028 296.612-296.587 296.612z" />
<glyph unicode="&#xe605;" glyph-name="share-doc" horiz-adv-x="820" d="M1.518 641.614h277.533v319.798c0 0-78.033-8.102-176.18-111.633-98.139-103.529-101.353-208.165-101.353-208.165zM683.281 961.412h-339.684v-384.596l-342.080 0.251-1.515 3.468v-510.502c0-73.845 61.4-133.979 136.847-133.979h546.434c75.514 0 136.911 60.137 136.911 133.979v757.403c-0.003 73.843-61.397 133.976-136.914 133.976zM691.854 145.164h-572.848v92.788h572.845v-92.788zM691.854 338.802h-572.848v92.783h572.845v-92.783z" />
<glyph unicode="&#xe606;" glyph-name="chat-simple" horiz-adv-x="1089" d="M953.901 962.387h-819.775c-72.965 0-132.418-60.712-132.418-135.344v-540.168c0-74.567 59.453-135.279 132.418-135.279h35.823v-212.891l344.966 212.891h438.986c72.963 0 132.415 60.709 132.415 135.279v540.168c0.003 74.632-59.45 135.344-132.415 135.344zM494.429 293.354l-195.769-124.001v124.001h-158.184v527.252h807.078l0.124-527.252h-453.249z" />
<glyph unicode="&#xe607;" glyph-name="security-locked" horiz-adv-x="828" d="M709.515 620.094v44.455c0 163.090-132.662 295.749-295.749 295.749-163.093 0-295.752-132.659-295.752-295.749v-44.455c-66.226-7.393-118.013-64.915-118.013-134.607v-411.623c0-74.629 59.481-135.365 132.472-135.365h562.583c73.059 0 132.534 60.736 132.534 135.365v411.623c0 69.697-51.792 127.219-118.074 134.607zM413.765 831.537c92.043 0 166.987-74.944 166.987-166.987v-43.632h-333.978v43.632c0 92.043 74.883 166.987 166.99 166.987z" />
<glyph unicode="&#xe608;" glyph-name="webCam" horiz-adv-x="1334" d="M1223.129 717.217l-180.128-175.796v217.716c0 74.673-59.512 135.496-132.599 135.496h-634.716c-73.084 0-132.596-60.823-132.596-135.496v-609.237c0-74.673 59.512-135.496 132.596-135.496h634.716c73.084 0 132.599 60.82 132.599 135.496v172.679l193.45-153.712c48.784-35.558 96.695 5.178 96.695 40.424v483.533c-0.003 35.248-55.897 71.306-110.017 24.393zM601.169 199.935c-141.111 0-255.524 114.411-255.524 255.521s114.411 255.521 255.524 255.521c141.108 0 255.519-114.411 255.519-255.521 0-141.113-114.408-255.521-255.519-255.521zM599.045 600.249c-80.474 0-145.727-65.253-145.727-145.729 0-80.471 65.25-145.727 145.727-145.727s145.729 65.256 145.729 145.727c0 80.474-65.253 145.729-145.729 145.729z" />
<glyph unicode="&#xe609;" glyph-name="camera-disabled" horiz-adv-x="1334" d="M1223.934 717.147l-180.299-175.956v217.848c0 7.661-0.666 15.148-1.902 22.432l73.695 65.346c26.349 23.41 28.841 63.8 5.369 90.24-23.475 26.406-63.803 28.872-90.273 5.4l-1009.019-894.712c-26.408-23.41-28.841-63.806-5.398-90.209 12.607-14.237 30.183-21.539 47.85-21.539 15.076 0 30.214 5.305 42.39 16.1l95.841 84.979c20.995-14.627 46.26-23.232 73.592-23.232h635.191c73.099 0 132.66 60.807 132.66 135.537v172.868l193.659-153.955c48.815-35.46 96.765 5.248 96.765 40.584v483.829c0.003 35.305-55.933 71.386-110.123 24.44zM601.515 199.448c-58.81 0-112.566 20.216-155.526 53.797l82.93 73.533c20.863-11.665 44.849-18.386 70.47-18.386 80.533 0 145.832 65.299 145.832 145.835 0 19.421-3.896 37.857-10.857 54.713l86.847 77.001c22.848-38.259 36.012-82.969 36.012-130.782 0-141.214-114.493-255.71-255.707-255.71zM345.797 455.16c0 141.216 114.496 255.715 255.717 255.715 21.501 0 42.075-3.434 61.986-8.429l216.757 192.191h-604.474c-73.138 0-132.697-60.838-132.697-135.597v-518.074l205.894 182.543c-1.308 10.486-3.184 20.853-3.184 31.651z" />
<glyph unicode="&#xe60a;" glyph-name="mic-disabled" horiz-adv-x="1137" d="M1121.124 938.866c-23.48 26.413-63.883 28.849-90.296 5.372l-1009.306-894.905c-26.413-23.418-28.852-63.816-5.434-90.232 12.612-14.243 30.224-21.547 47.893-21.547 15.050 0 30.224 5.307 42.403 16.108l257.072 227.934c33.225-22.863 69.988-39.678 108.611-49.713-70.191-35.653-118.771-107.715-118.771-191.894h431.872c0 85.737-50.329 159.115-122.765 194.079 54.95 14.49 105.842 39.965 147.497 77.496 51.888 46.712 113.712 131.515 113.712 270.329v130.323c0 18.812-7.924 35.767-20.585 47.798l212.664 188.558c26.419 23.477 28.849 63.816 5.434 90.294zM791.535 481.891c0-157.985-117.649-229.923-226.99-229.923-35.214 0-68.659 7.217-98.285 20.786l55.735 49.416c14.733-4.59 30.356-7.132 46.609-7.132 89.357 0 161.984 72.687 161.984 161.979v30.1l60.947 54.042v-79.269zM730.589 793.867c0 89.298-72.625 161.984-161.984 161.984-89.298 0-161.984-72.687-161.984-161.984v-316.85c0-0.25 0-0.498 0-0.748l323.969 287.25v30.348zM350.795 426.69c-3.246 17.483-5.119 35.782-5.119 55.201v130.323c0 36.406-29.6 66.004-66.006 66.004-36.466 0-66.004-29.597-66.004-66.004v-130.323c0-57.198 11.115-107.026 29.099-150.931l108.030 95.73z" />
<glyph unicode="&#xe60b;" glyph-name="microphone" horiz-adv-x="1137" d="M858.414 679.944c-36.595 0-66.246-29.652-66.246-66.182v-130.725c0-158.421-117.982-230.597-227.635-230.597-58.674 0-112.618 19.87-151.86 55.959-44.23 40.819-67.696 101.203-67.696 174.64v130.725c0 36.53-29.654 66.182-66.182 66.182-36.53 0-66.182-29.652-66.182-66.182v-130.725c0-195.834 119.494-314.763 259.177-351.040-70.408-35.71-119.176-108.014-119.176-192.431h433.118c0 85.993-50.409 159.621-123.029 194.572 55.079 14.64 106.121 40.127 147.886 77.79 52.050 46.877 114.008 131.925 114.008 271.106v130.725c0 36.53-29.59 66.182-66.184 66.182zM568.571 315.719c-89.589 0-162.459 72.932-162.459 162.521v317.665c0 89.589 72.87 162.459 162.459 162.459 89.592 0 162.524-72.87 162.524-162.459v-317.665c0.003-89.592-72.929-162.521-162.524-162.521z" />
<glyph unicode="&#xe60c;" glyph-name="prezi" horiz-adv-x="1025" d="M512.356 960c-282.456 0-512.356-229.838-512.356-512.478 0-282.389 229.9-512.227 512.356-512.227 282.515 0 512.414 229.838 512.414 512.227 0 282.64-229.9 512.478-512.414 512.478zM512.356 14.856c-238.545 0-432.671 194.126-432.671 432.666 0 238.796 194.126 432.858 432.671 432.858 238.601 0 432.856-194.062 432.856-432.858 0-238.54-194.255-432.666-432.856-432.666zM512.545 854.962c-224.755 0-407.508-182.75-407.508-407.315 0-224.563 182.75-407.315 407.508-407.315 224.437 0 407.187 182.755 407.187 407.315-0.003 224.566-182.75 407.315-407.187 407.315zM512.545 127.323c-176.715 0-320.453 143.804-320.453 320.324 0 176.523 143.737 320.324 320.453 320.324 176.523 0 320.196-143.802 320.196-320.324 0-176.52-143.673-320.324-320.196-320.324zM283.851 562.789l-0.954-1.398v-234.413l0.954-1.398c15.757-23.060 36.473-44.542 61.699-63.797l8.961-6.801v378.341l-8.961-6.735c-25.1-19.191-45.814-40.544-61.699-63.799zM415.637 665.729l-3.621-1.334v-440.36l3.621-1.398c18.683-7.055 38.887-11.94 61.766-14.931l6.224-0.762v474.415l-6.163-0.762c-22.237-2.795-43.016-7.753-61.827-14.869zM547.367 680.599l-6.165 0.762v-474.415l6.165 0.762c22.301 2.793 43.077 7.811 61.763 14.864l3.685 1.4v440.488l-3.685 1.334c-18.811 7.053-39.525 12.010-61.763 14.805zM740.98 562.789c-15.692 23.002-36.473 44.48-61.699 63.797l-8.894 6.86v-378.469l8.894 6.801c25.351 19.381 46.132 40.862 61.699 63.861l0.89 1.398v234.352l-0.89 1.4z" />
<glyph unicode="&#xe60d;" glyph-name="full-screen" horiz-adv-x="1089" d="M952.366 960.134h-820.477c-73.027 0-132.531-60.761-132.531-135.455v-752.358c0-74.66 59.504-135.424 132.531-135.424h820.48c73.089 0 132.596 60.766 132.596 135.424v752.358c-0.003 74.694-59.507 135.455-132.599 135.455zM946.135 78.801h-807.894v739.462h807.834l0.059-739.462zM569.742 511.875l91.772 96.865-77.305 77.308 316.393 85.040-84.981-316.391-75.357 75.293-91.834-96.865zM514.763 384.563l-91.767-96.865 77.3-77.305-316.388-85.043 84.979 316.388 75.357-75.29 91.834 96.871z" />
<glyph unicode="&#xe60e;" glyph-name="exit-full-screen" horiz-adv-x="1089" d="M953.225 959.18h-820.663c-73.045 0-132.562-60.776-132.562-135.488v-752.525c0-74.647 59.517-135.421 132.562-135.421h820.66c73.107 0 132.624 60.776 132.624 135.421v752.525c0.003 74.712-59.515 135.488-132.622 135.488zM946.994 77.647h-808.079v739.596h808.017l0.062-739.596zM915.539 706.7l-91.795-96.889 77.326-77.323-316.463-85.030 84.999 316.463 75.373-75.339 91.852 96.889zM170.625 188.221l91.793 96.884-77.323 77.326 316.463 85.028-84.997-316.46-75.373 75.342-91.857-96.891z" />
<glyph unicode="&#xe60f;" glyph-name="kick1" horiz-adv-x="1025" d="M513.036 960c283.57-0.188 512.414-229.474 512.037-512.664-0.377-283.756-228.965-512.228-512.541-512.288-283.191-0.067-512.912 229.474-512.533 512.099 0.374 284.638 228.965 513.103 513.036 512.853zM512.285 810.729c-200.79-0.126-362.957-162.291-362.831-363.014 0-201.105 161.788-363.081 362.831-363.334 201.164-0.312 363.581 162.294 363.455 363.772-0.25 200.852-162.417 362.702-363.455 362.575zM597.392 447.588h-0.503l-0.126 0.126h0.63l115.615 115.866c0 0-78.247 78.505-82.153 82.153l-117.754-116.183-119.014 118.196-82.024-82.279 88.815-88.818 26.674-29.061h0.503l0.253-0.253h-0.756l-115.489-115.806c0 0 78.249-78.564 82.024-82.212l117.76 116.245 119.008-118.26 82.153 82.406-88.815 88.82-26.8 29.061z" />
<glyph unicode="&#xe610;" glyph-name="kick" horiz-adv-x="1216" d="M66.491-63.997h1027.94zM1198.596 487.986c-135.702 135.893-271.415 271.66-407.367 407.241-6.244 6.089-13.868 11.714-21.867 14.653-31.236 11.399-63.48-12.808-63.728-47.674-0.253-67.663-0.126-135.331-0.126-202.965 0-4.281 0-8.62 0-13.964-6.123 0-10.87 0-15.62 0-106.247 0-212.334 0.062-318.485 0-35.178-0.031-54.86-19.71-54.86-54.922-0.059-92.778-0.059-185.5 0-278.345 0-35.8 19.682-55.479 55.611-55.479 105.775-0.062 211.423 0 317.11 0 4.877 0 9.622 0 16.245 0 0-5.375 0-9.374 0-13.309 0-66.793 0.25-133.703 0-200.496 0-23.057 9.247-40.241 30.242-49.547 21.116-9.371 39.361-2.81 55.231 12.937 135.955 136.079 272.031 272.034 407.989 408.175 23.49 23.431 23.24 50.112-0.374 73.695zM532.596 44.729c-2.627 19.62-22.055 32.116-27.928 35.426-8.811 5.186-18.371 5.811-25.683 5.811l-6.37-0.126-227.926 0.188c-56.042 0.124-98.468 42.173-98.591 97.717-0.188 177.127-0.188 354.321 0.065 531.51 0.059 53.983 42.671 96.53 96.968 96.811l235.922 0.062c33.426 0.031 51.294 16.121 54.481 49.235 1.001 12.965 0.81 26.052 0.439 39.172-1.128 39.737-19.369 57.481-59.107 57.512l-217.866-0.121c-15.494 0-30.926-0.562-46.361-2.343-115.52-13.154-207.555-113.649-209.681-228.798-1.313-63.888-0.996-127.804-0.684-191.718l0.186-60.201h-0.377c0 0-0.121-227.954 0.065-289.811 0.248-135.702 101.528-240.796 235.545-244.48 33.176-0.875 66.419-1.189 99.654-1.189h0.065l148.012 0.753c29.368 0 47.483 17.37 49.73 47.545 1.755 22.058 1.628 40.173-0.557 57.045z" />
<glyph unicode="&#xe611;" glyph-name="callRetro" horiz-adv-x="1390" d="M839.334 386.487c0-79.199-64.257-143.461-143.486-143.461-79.174 0-143.431 64.262-143.431 143.461 0 79.227 64.257 143.431 143.431 143.431 79.23-0.003 143.486-64.204 143.486-143.431zM1372.769 706.485c-6.595 39.459-29.496 64.168-70.606 69.276-23.788 2.918-38.256 15.637-44.726 39.040-9.706 35.519-33.678 58.993-67.811 70.76-24.807 8.595-50.3 16.462-76.186 20.491-69.655 10.911-140.51 15.924-209.526 29.943-69.53 14.178-139.053 23.342-208.893 24.073-69.845-0.731-139.371-9.895-208.893-24.073-69.022-14.016-139.876-19.029-209.526-29.94-25.884-4.028-51.385-11.896-76.189-20.491-34.13-11.767-58.105-35.24-67.814-70.76-6.469-23.403-20.934-36.122-44.723-39.040-41.105-5.108-64.006-29.82-70.601-69.278-6.788-40.41-11.737-81.202-16.811-121.885-2.728-22.109 6.405-32.576 30.386-32.448 120.839 0.697 241.692 0.697 362.595 0.095 24.045-0.128 33.115 9.388 33.433 33.338 0.762 57.369-4.631 111.895-47.136 156.618-7.041 7.39-10.849 25.281-6.726 33.846 4.062 8.5 40.856 16.716 45.992 16.716 43.328-0.19 43.138-0.223 49.418-43.423 1.205-8.28 2.539-18.46 7.803-23.853 30.319-30.863 21.252-66.706 7.234-97.634-30.389-67.139-61.537-134.827-100.867-196.869-73.458-115.831-104.41-160.744-198.679-260.844-58.675-62.293-68.573-101.687-68.573-137.466 0-70.989 41.038-96.744 137.148-96.744 181.614 0 260.908 0.315 442.528 0.315 181.614 0 260.905-0.315 442.528-0.315 96.102 0 137.142 25.752 137.142 96.744 0 35.779-9.898 75.173-68.573 137.466-94.264 100.1-125.222 145.012-198.679 260.844-39.333 62.042-70.475 129.73-100.861 196.869-14.019 30.927-23.091 66.77 7.234 97.634 5.264 5.393 6.595 15.575 7.803 23.853 6.28 43.202 6.090 43.233 49.412 43.423 5.139 0 41.933-8.216 45.992-16.716 4.126-8.565 0.318-26.453-6.723-33.846-42.502-44.723-47.898-99.249-47.136-156.618 0.315-23.947 9.388-33.466 33.43-33.338 120.909 0.603 241.753 0.603 362.601-0.095 23.975-0.126 33.109 10.342 30.383 32.448-5.075 40.686-10.018 81.475-16.806 121.885zM959.991 383.505c0-146.315-118.624-264.936-264.97-264.936s-264.973 118.621-264.973 264.936c0 146.318 118.624 264.936 264.973 264.936 146.343 0 264.97-118.621 264.97-264.936z" />
<glyph unicode="&#xe612;" glyph-name="callModern" horiz-adv-x="1210" d="M310.262 30.43c0-52.13-42.207-94.43-94.399-94.43h-121.405c-52.195 0-94.458 42.3-94.458 94.43v835.67c0 52.158 42.266 94.458 94.458 94.458h121.403c52.195 0 94.399-42.3 94.399-94.458v-835.67zM1077.118 960.56h-561.987c-72.919 0-132.33-60.673-132.33-135.253v-754.115c0-74.518 59.411-135.191 132.33-135.191h561.987c72.98 0 132.394 60.673 132.394 135.191v754.115c0 74.58-59.414 135.253-132.394 135.253zM529.83 826.906h532.653l0.062-143.298h-532.715v143.298zM643.255 51.628h-113.551v113.551h113.551v-113.551zM643.255 256.748h-113.551v113.554h113.551v-113.554zM643.382 463.756h-113.551v113.554h113.551v-113.554zM852.9 51.628h-113.551v113.551h113.551v-113.551zM852.9 256.748h-113.551v113.554h113.551v-113.554zM853.027 463.756h-113.556v113.554h113.556v-113.554zM1062.548 51.628h-113.556v113.551h113.556v-113.551zM1062.548 256.748h-113.556v113.554h113.556v-113.554zM1062.669 463.756h-113.554v113.554h113.554v-113.554z" />
<glyph unicode="&#xe613;" glyph-name="recDisable" horiz-adv-x="1140" d="M1123.444 939.015c-23.593 26.481-64.131 28.989-90.74 5.395l-1008.269-893.436c-26.609-23.468-28.991-64.131-5.46-90.676 12.674-14.306 30.308-21.649 48.126-21.649 15.123 0 30.372 5.401 42.544 16.195l130.045 115.22c90.743-81.844 210.569-132.165 342.473-132.101 282.816 0.061 510.913 227.969 511.287 510.972 0.126 109.934-34.682 211.367-93.499 294.72l118.088 104.625c26.483 23.526 28.997 64.129 5.404 90.735zM944.422 449.818c0.128-200.922-161.896-363.201-362.509-362.952-87.56 0.123-167.573 31.151-230.061 82.569l331.277 293.509v-73.176c1.071-60.993 32.696-92.18 94.944-93.692 61.997 1.512 93.686 32.763 95.131 93.756v41.096h-72.227v-47.499c0.251-4.642-0.564-10.607-2.511-17.949-1.25-3.261-3.448-6.020-6.525-8.093-3.197-2.572-7.845-3.828-13.868-3.828-10.543 0.31-17.132 4.268-19.827 11.921-1.068 3.512-1.947 6.905-2.508 10.163-0.254 2.887-0.377 5.532-0.377 7.786v143.511l42.477 37.634c0.215-0.432 0.452-0.851 0.63-1.303 1.947-6.467 2.762-12.799 2.511-19.076v-36.772h72.227v30.121c-0.246 31.245-9.086 54.699-26.363 70.447l40.711 36.069c35.787-56.055 56.803-122.585 56.867-194.244zM239.795 331.47c-12.613 37.023-19.827 76.557-19.827 117.913-0.19 200.236 161.584 362.009 361.945 362.135 56.853 0 110.313-13.302 158.133-36.398l117.846 104.421c-79.444 50.952-173.758 80.817-275.292 80.948-283.377 0.181-511.354-227.729-511.789-511.675-0.126-79.567 18.636-154.679 51.137-221.882l117.848 104.538zM388.576 626.020h-97.514v-249.057l72.23 64.070v0.689h0.815l117.72 104.418c0 0.564 0.123 0.94 0.123 1.509 0.753 53.898-30.369 80.069-93.374 78.37zM405.959 561.517c1.942-2.767 3.074-6.469 3.323-11.112 0.312-4.452 0.438-9.6 0.438-15.246 0.251-10.916-0.689-19.83-2.949-26.985-2.952-7.594-10.983-11.357-24.159-11.357h-19.325v74.043h15.31c7.842 0 13.865-0.683 18.072-2.19 4.397-1.573 7.468-3.953 9.29-7.153z" />
<glyph unicode="&#xe614;" glyph-name="recEnable" horiz-adv-x="1142" d="M581.278 961.708c284.857-0.19 514.807-230.517 514.427-514.997-0.378-285.047-230.073-514.553-514.869-514.615-284.541-0.062-515.311 230.517-514.933 514.422 0.439 285.936 230.009 515.439 515.375 515.19zM580.579 811.756c-201.764-0.123-364.666-163.032-364.478-364.663 0-202.018 162.524-364.735 364.478-364.984 202.018-0.316 365.174 163.030 365.048 365.423-0.252 201.767-163.156 364.35-365.048 364.224zM287.698 624.907h98.196c63.442 1.767 94.785-24.518 94.027-78.863 0.254-19.081-2.211-34.882-7.456-47.521-6.005-12.508-18.706-21.988-38.167-28.181v-0.819c28.373-6.259 43.031-23.573 43.981-51.946v-57.689c0-11.247 0.254-22.813 0.758-34.756 0.819-12.005 3.033-20.979 6.696-27.043h-71.846c-3.727 6.064-6.128 15.038-7.14 27.043-1.012 11.943-1.454 23.509-1.138 34.756v52.321c0 9.603-2.214 16.553-6.573 20.979-4.675 4.107-12.701 6.19-24.012 6.19h-14.599v-141.291h-72.73v326.82zM360.428 494.861h19.463c13.271 0 21.359 3.794 24.331 11.375 2.276 7.204 3.221 16.304 2.969 27.171 0 5.815-0.126 10.867-0.442 15.418-0.252 4.675-1.392 8.404-3.352 11.247-1.831 3.157-4.926 5.561-9.352 7.14-4.233 1.454-10.299 2.211-18.2 2.211h-15.418v-74.564zM498.372 624.907h162.082v-62.687h-89.35v-65.587h78.103v-62.685h-78.103v-73.11h92.822v-62.749h-165.557v326.818zM682.507 535.999c0.316 31.782 9.416 55.542 27.425 71.407 17.44 15.29 40.185 22.936 68.181 22.936 28.247 0 51.119-7.646 68.623-23 17.82-15.798 26.92-39.623 27.171-71.407v-30.333h-72.73v37.031c0.254 6.192-0.57 12.639-2.527 19.209-1.264 3.157-3.475 5.938-6.573 8.214-3.221 1.515-7.898 2.404-13.964 2.404-10.615-0.316-17.249-3.855-19.967-10.618-2.211-6.573-3.223-13.017-2.907-19.209v-161.956c0-2.273 0.126-4.865 0.38-7.772 0.568-3.411 1.454-6.824 2.527-10.233 2.717-7.775 9.352-11.756 19.967-12.007 6.067 0 10.744 1.261 13.964 3.791 3.098 2.15 5.309 4.867 6.573 8.216 1.96 7.33 2.782 13.33 2.527 18.007v47.837h72.73v-41.328c-1.451-61.547-33.364-93.015-95.794-94.469-62.685 1.454-94.53 32.922-95.607 94.343v148.937z" />
<glyph unicode="&#xe615;" glyph-name="contactList" horiz-adv-x="1025" d="M1016.824 5.766c-2.051 15.373-5.331 30.537-7.859 45.847-8.334 50.458-33.006 86.503-82.063 107.922-78.373 34.198-155.103 72.121-232.111 109.395-55.686 27.025-52.409 88.519-34.097 114.413 11.89 16.88 22.344 34.572 23.575 56.852 0.444 8.226 8.303 18.99 15.817 23.294 26.070 15.035 38.161 39.565 50.020 64.982 3.109 6.696 7.379 13.187 12.266 18.722 8.471 9.668 12.264 19.235 6.079 31.842-1.435 2.97 1.331 8.334 2.8 12.367 4.304 12.026 10.285 23.676 13.12 36.043 3.556 15.339 5.398 31.225 6.252 46.975 0.374 6.523-6.045 13.528-5.362 19.95 3.483 31.912-14.557 56.202-24.739 83.977-12.465 34.198-36.928 55.619-58.519 81.106-4.066 4.784-5.227 13.051-5.571 19.886-0.72 14.588-6.732 21.797-22.004 19.813-6.11-0.787-12.772-2.495-18.41-0.991-4.957 1.334-12.406 6.288-12.676 10.112-1.538 19.336-8.264 22.517-28.016 19.235-12.364-2.049-28.457 9.155-40.584 17.561-10.145 7.041-18.89 10.045-30.681 7.176-4.915-1.195-11.544-0.991-15.716 1.435-4.441 2.663-8.775 4.237-13.118 5.124v0.748c-0.957-0.031-1.982-0.204-2.939-0.307-0.955 0.103-1.912 0.274-2.867 0.307v-0.751c-4.371-0.888-8.749-2.462-13.156-5.124-4.133-2.425-10.762-2.632-15.68-1.435-11.822 2.867-20.569-0.137-30.684-7.176-12.158-8.404-28.217-19.609-40.584-17.561-19.746 3.282-26.509 0.103-28.047-19.235-0.307-3.824-7.686-8.778-12.676-10.112-5.669-1.504-12.297 0.204-18.446 0.991-15.236 1.984-21.25-5.225-21.97-19.813-0.338-6.832-1.502-15.102-5.568-19.886-21.588-25.485-46.051-46.908-58.555-81.106-10.117-27.773-28.189-52.063-24.669-83.975 0.686-6.422-5.744-13.427-5.4-19.95 0.89-15.749 2.735-31.636 6.254-46.975 2.836-12.367 8.814-24.019 13.151-36.043 1.437-4.033 4.242-9.397 2.769-12.367-6.182-12.607-2.358-22.174 6.115-31.842 4.853-5.535 9.121-12.026 12.23-18.722 11.859-25.417 23.947-49.947 50.014-64.982 7.519-4.304 15.378-15.068 15.858-23.294 1.192-22.28 11.65-39.972 23.57-56.852 18.281-25.895 21.147-86.738-34.162-114.413-76.456-38.264-153.741-75.2-232.042-109.395-49.129-21.418-73.726-57.463-82.063-107.922-2.526-15.311-5.878-30.475-7.859-45.847-3.009-22.928-7.823-69.766-7.823-69.766h1024.611c-0.003 0-4.781 46.838-7.787 69.766z" />
<glyph unicode="&#xe616;" glyph-name="avatar" horiz-adv-x="1026" d="M1026.175 449.067c0-283.345-229.709-513.051-513.108-513.051-283.348 0-513.069 229.703-513.069 513.051 0 283.384 229.721 513.106 513.069 513.106 283.4 0 513.108-229.721 513.108-513.106zM513.069-63.985c135.725 0 259.112 52.711 350.874 138.739-9.717 11.65-22.551 21.114-39.113 28.343-58.934 25.745-116.627 54.256-174.534 82.256-41.871 20.322-39.405 66.587-25.639 86.057 8.943 12.692 16.805 25.998 17.728 42.746 0.333 6.169 6.241 14.284 11.889 17.522 19.604 11.304 28.697 29.747 37.604 48.861 2.34 5.031 5.555 9.89 9.229 14.077 6.37 7.243 9.224 14.436 4.572 23.942-1.086 2.209 1.004 6.241 2.105 9.273 3.238 9.067 7.733 17.801 9.861 27.115 2.67 11.549 4.059 23.48 4.701 35.323 0.281 4.902-4.544 10.184-4.033 14.986 2.621 24.022-10.943 42.271-18.598 63.158-9.376 25.714-27.771 41.82-44.005 60.97-3.058 3.623-3.927 9.838-4.188 14.952-0.539 10.981-5.060 16.415-16.544 14.924-4.598-0.601-9.611-1.886-13.843-0.756-3.728 0.988-9.327 4.724-9.534 7.604-1.153 14.539-6.213 16.929-21.065 14.475-9.296-1.543-21.395 6.858-30.513 13.203-7.632 5.292-14.209 7.555-23.069 5.38-3.697-0.9-8.682-0.746-11.815 1.094-3.341 1.976-6.605 3.184-9.867 3.839v0.552c-0.72-0.013-1.489-0.129-2.209-0.217-0.722 0.088-1.44 0.206-2.157 0.217v-0.552c-3.29-0.653-6.574-1.863-9.89-3.839-3.112-1.837-8.091-1.992-11.797-1.094-8.886 2.173-15.448-0.088-23.064-5.38-9.157-6.345-21.222-14.746-30.518-13.203-14.862 2.451-19.94 0.062-21.093-14.475-0.219-2.879-5.793-6.616-9.516-7.604-4.278-1.13-9.247 0.155-13.887 0.756-11.456 1.491-15.987-3.943-16.516-14.924-0.261-5.111-1.13-11.33-4.19-14.952-16.222-19.15-34.616-35.258-44.018-60.97-7.627-20.887-21.204-39.136-18.57-63.158 0.511-4.802-4.304-10.083-4.046-14.986 0.655-11.846 2.041-23.776 4.701-35.323 2.131-9.312 6.626-18.048 9.89-27.115 1.094-3.032 3.174-7.062 2.082-9.273-4.649-9.508-1.788-16.702 4.582-23.942 3.674-4.188 6.874-9.046 9.224-14.077 8.899-19.111 17.992-37.557 37.596-48.861 5.653-3.238 11.559-11.353 11.905-17.522 0.913-16.748 8.773-30.054 17.739-42.746 13.745-19.47 15.902-65.245-25.673-86.057-57.52-28.772-115.6-56.511-174.503-82.256-16.57-7.23-29.409-16.694-39.123-28.338 91.759-86.031 215.138-138.744 350.843-138.744z" />
<glyph unicode="&#xe617;" glyph-name="hangup" horiz-adv-x="1026" d="M65.774 516.748c10.052 9.358 25.988 21.772 43.285 32.699 51.335 32.619 108.115 50.897 166.829 64.133 48.763 10.95 98.246 16.887 148.066 20.203 55.755 3.754 111.559 3.78 167.392 0.797 39.944-2.185 79.686-6.502 119.119-13.211 43.956-7.506 87.037-17.994 128.785-33.751 24.419-9.175 48.172-20.105 70.534-33.573 29.716-17.891 56.552-39.224 77.22-67.348 20.819-28.302 31.721-60.407 33.829-95.392 1.747-27.402 0.717-54.697-5.656-81.588-2.877-12.083-8.226-23.134-16.554-32.386-11.417-12.648-26.424-17.021-42.772-17.636-20.463-0.668-40.411 4.113-60.361 8.226-38.912 7.97-77.836 16.245-116.699 24.728-14.137 3.034-28.689 5.093-41.649 12.596-22.308 12.955-34.445 31.775-34.033 57.783 0.258 16.869 2.216 33.782 2.469 50.695 0.312 25.010-9.923 45.161-30.898 59.042-14.395 9.539-30.694 14.911-47.452 18.665-40.411 9.046-81.387 10.179-122.561 10.050-28.821-0.126-57.582-1.669-86.093-6.143-19.947-3.161-39.562-7.813-57.732-17.014-24.318-12.364-39.353-31.465-40.073-59.352-0.441-16.351 0.973-32.802 1.927-49.15 0.642-11.822-0.080-23.446-5.295-34.288-9.26-19.385-24.935-31.672-45.37-36.964-22.646-5.865-45.605-10.54-68.504-15.223-38.102-7.764-76.216-15.368-114.416-22.517-14.526-2.774-29.254-1.951-43.133 3.602-18.742 7.457-28.924 22.775-34.138 41.337-7.096 25.397-7.841 51.513-6.966 77.731 0.9 27.040 5.883 53.237 18.404 77.607 9.794 19.065 22.491 35.955 42.493 55.642z" />
<glyph unicode="&#xe618;" glyph-name="reload" horiz-adv-x="1122" d="M797.086 112.301c-0.059 0.163-0.119 0.328-0.16 0.485-71.399-45.638-151.782-69.931-234.023-69.931-0.013 0-0.021 0-0.028 0-122.52 0-237.501 52.772-315.469 144.741-99.778 117.698-134.252 329.954-73.022 427.789 4.004-1.662 7.875-3.233 11.68-4.773 13.585-5.511 26.413-10.716 42.305-19.096 6.063-3.202 12.338-4.812 18.673-4.812 11.714 0 22.6 5.648 29.848 15.486 7.815 10.617 10.313 24.778 6.538 36.951l-3.525 11.41c-10.687 34.59-21.723 70.354-34.211 105.078-9.983 27.765-22.399 62.327-59.226 62.327-12.057 0-26.037-3.656-46.73-12.204-44.294-18.319-71.058-29.961-114.534-49.81-15.102-6.887-25.234-22.698-25.203-39.343 0.028-15.842 8.992-29.337 23.975-36.115 18.208-8.257 30.536-13.716 43.468-19.447l10.687-4.753c-101.938-259.102 24.803-526.458 211.314-639.212 83.497-50.474 178.5-77.14 274.769-77.14h0.041c102.72 0 205.561 31.099 284.501 85.198-31.729 28.803-45.566 69.167-51.671 87.171zM1098.203 210.090c-18.113 8.577-30.356 14.258-43.221 20.244l-10.496 4.892c106.448 257.268-15.569 526.801-200.067 642.788-85.36 53.663-183.123 82.032-282.716 82.032-104.848 0-206.41-30.593-285.967-86.165l-5.385-3.764c31.597-27.564 45.86-66.788 52.917-86.41 72.926 47.94 155.675 73.409 239.895 73.409 125.407 0 242.142-54.785 320.294-150.316 97.683-119.447 128.439-332.255 65.498-429.015-3.989 1.736-7.815 3.385-11.624 4.998-13.471 5.759-26.204 11.18-41.954 19.821-6.203 3.424-12.645 5.155-19.212 5.155-11.585 0-22.399-5.558-29.69-15.267-7.813-10.434-10.478-24.432-6.966-36.515l3.279-11.301c10.096-34.845 20.531-70.857 32.412-105.842 9.588-28.238 21.514-63.382 59.179-63.382 11.843 0 25.577 3.424 45.881 11.399 44.351 17.439 71.319 28.601 115.409 47.777 15.19 6.623 25.601 22.252 25.859 38.894 0.281 15.822-8.445 29.499-23.325 36.569z" />
<glyph unicode="&#xe619;" glyph-name="filmstrip" horiz-adv-x="1115" d="M46.993 961.7c461.234 0 553.793 0 1015.024 0 35.919 0 53.356-25.959 53.356-57.959-0.581-303.259-0.325-606.488-0.449-909.809 0-43.984-13.203-57.058-57.703-57.058-443.072-0.126-556.453-0.126-999.553 0-44.534 0-57.799 13.009-57.799 57.058-0.098 303.257 0.485 608.072-0.093 911.329-0.034 26.21 11.301 53.761 47.217 56.439zM311.405 450.298c0-119.045-0.072-172.168 0.057-291.249 0.036-50.043 11.208-61.050 62.12-61.050 233.352 0 137.075 0 370.522 0 47.075 0 59.249 11.982 59.249 58.095 0.126 239.111 0.126 346.338 0 585.389 0 48.138-10.687 58.991-57.768 58.991-235.323 0.101-140.844 0.101-376.157 0-47.044 0-57.93-11.043-57.966-58.89-0.129-119.109-0.057-172.209-0.057-291.287zM153.944 838.566c-74.929-0.062-66.687 5.958-66.845-66.685-0.201-63.95-7.054-63.534 62.528-63.372 72.999 0.194 67.201-3.764 67.302 67.554 0 67.722 4.087 62.595-62.985 62.502zM963.644 838.566c-71.159-0.034-65.56 6.185-65.751-65.364-0.129-67.302-4.508-64.693 64.528-64.693 73.089 0 65.299-2.031 65.299 66.238-0.003 68.646 6.956 63.911-64.076 63.818zM216.828 122.408c0.359 73.094 4.639 66.914-67.358 67.17-68.104 0.191-62.569 2.763-62.407-63.31 0.129-73.476-6.954-66.52 67.074-66.649 66.042-0.065 63.142-6.056 62.691 62.789zM1027.718 124.4c0.134 68.334 6.443 65.304-63.297 65.178-70.132-0.132-66.656 5.793-66.527-65.304 0.129-70.645-4.384-64.721 63.756-64.657 71.995 0.132 66.202-6.698 66.068 64.783zM1027.718 342.077c0 70.55 7.219 66.842-67.485 66.522-0.898 0-1.873 0-2.838 0-59.375 0-59.375 0-59.375-58.023 0-77.922-6.443-69.936 69.293-70.196 66.076-0.387 60.539-3.091 60.405 61.697zM151.307 489.873c68.295-0.163 65.815-5.568 65.624 62.982-0.194 71.128 4.895 64.917-66.014 65.010-69.905 0.101-63.813 4.704-63.885-63.978-0.062-67.431-5.7-64.463 64.275-64.014zM961.263 489.873c72.511-0.258 66.589-4.603 66.455 64.494 0 68.558 6.185 63.537-64.267 63.498-70.196-0.028-65.686 6.053-65.498-65.493 0.132-62.5 0.067-62.5 63.31-62.5zM150.399 280.38c71.004 0 66.659-6.567 66.466 64.528-0.163 63.694-0.036 63.501-65.013 63.756-70.805 0.258-64.822 2.673-64.822-63.756 0.036-69.167-5.919-64.788 63.369-64.528z" />
<glyph unicode="&#xe61a;" glyph-name="connection" horiz-adv-x="1444" d="M3.881 146.835h220.26v-210.835h-220.26v210.835zM308.817 350.143h220.27v-414.143h-220.27v414.143zM613.764 553.412h220.268v-617.412h-220.268v617.412zM918.685 756.715h220.265v-820.715h-220.265v820.715zM1223.629 960h220.263v-1024h-220.263v1024z" />
<glyph unicode="&#xe61b;" glyph-name="settings" horiz-adv-x="1105" d="M526.071 234.749c-28.637-30.869-56.465-60.861-84.282-90.859-51.578-55.636-103.047-111.376-154.842-166.832-7.606-8.135-15.958-16.1-25.317-22.012-28.075-17.708-58.31-18.090-88.472-6.492-59.84 23.028-80.004 90.727-59.734 139.234 5.413 12.95 13.721 23.601 23.709 33.173 70.256 67.351 140.506 134.717 210.76 202.077 15.638 14.993 31.264 29.995 47.364 45.45-9.302 9.529-18.386 18.833-27.451 28.137-12.122 12.442-13.234 20.28-5.067 35.498 4.735 8.816 4.789 8.878-2.627 16.198-20.012 19.72-40.168 39.198-63.498 55.188-27.167 18.624-57.161 24.233-89.083 19.849-53.402-7.328-91.609-38.372-121.413-81.046-12.774-18.299-15.365-40.313-17.517-61.875-3.23-32.245-2.415-64.479 2.209-96.597 1.654-11.515-3.863-16.539-13.835-11.175-8.306 4.448-16.095 11.048-22.115 18.353-15.574 18.89-22.223 42.042-27.474 65.395-12.955 57.652-8.86 114.49 12.191 169.495 32.345 84.537 79.743 159.571 145.953 221.932 13.659 12.857 176.841 180.564 202.944 207.021 7.493 7.599 14.895 7.635 22.393 0.028 43.009-43.641 85.985-87.316 128.927-131.029 8.117-8.267 8.019-15.097-0.222-23.49-26.339-26.834-52.726-53.627-79.106-80.419-6.244-6.334-97.34-82.437-73.027-128.816 22.693-25.090 46.196-49.449 69.575-73.904 1.189-1.238 4.686-1.386 6.523-0.632 3.63 1.499 6.848 3.997 10.248 6.066 9.745 5.94 19.545 4.918 27.812-3.083 11.755-11.381 23.405-22.858 35.392-34.59 4.807 4.575 9.939 9.41 15.027 14.294 27.128 26.039 54.272 52.071 81.351 78.146 16.413 15.778 18.652 28.418 11.038 49.658-10.473 29.221-14.356 59.677-13.85 90.624 1.017 61.045 20.438 115.334 61.003 161.416 32.825 37.286 72.054 64.311 121.643 74.325 35.227 7.101 69.139 4.513 100.663-14.026 6.365-3.752 11.908-9.007 17.455-14.005 3.491-3.125 3.153-6.236-0.565-9.98-42.503-42.885-84.772-86.013-127.154-129.035-12.442-12.638-12.356-23.167 0.196-35.914 40.344-40.978 80.597-82.050 120.936-123.052 10.076-10.233 19.537-10.021 29.504 0.134 43.195 44.077 86.449 88.090 129.706 132.118 1.21 1.233 2.572 2.322 5.135 4.624 5.491-5.893 11.895-10.924 15.961-17.406 19.452-30.944 22.608-64.83 17.073-100.25-14.253-91.080-97.188-175.638-197.712-190.123-39.977-5.764-79.372-2.562-118.067 9.031-5.898 1.775-11.541 4.629-17.538 5.829-12.47 2.474-23.872-0.366-32.74-9.877-30.921-33.168-61.674-66.484-92.474-99.758-0.73-0.805-1.349-1.718-0.181-1.099 8.992-10.006 17.354-20.662 27.061-29.94 81.064-77.54 164.91-151.986 250.882-224.063 9.936-8.347 10.274-15.695 1.040-25.1-42.338-43.068-84.689-86.111-127.059-129.154-9.413-9.575-16.846-9.152-25.291 1.295-76.686 94.78-156.8 186.609-239.707 276.002-1.334 1.453-2.562 3.029-4.257 5.042z" />
<glyph unicode="&#xe61c;" glyph-name="dialPad" horiz-adv-x="1026" d="M74.418 881.299h239.304v-228.491h-239.304v228.491zM393.455 881.299h239.304v-228.491h-239.304v228.491zM712.494 881.299h239.263v-228.491h-239.263v228.491zM74.418 562.265h239.304v-228.555h-239.304v228.555zM393.455 562.265h239.304v-228.555h-239.304v228.555zM712.494 562.265h239.263v-228.555h-239.263v228.555zM74.418 243.166h239.304v-228.465h-239.304v228.465zM393.455 243.166h239.304v-228.465h-239.304v228.465zM712.494 243.166h239.263v-228.465h-239.263v228.465z" />
<glyph unicode="&#xe900;" glyph-name="photo-camera" d="M984.014 715.201c-26.67 26.665-58.84 40.001-96.532 40.001h-119.467l-27.195 72.529c-6.759 17.42-19.108 32.444-37.073 45.072-17.958 12.622-36.356 18.938-55.203 18.938h-273.074c-18.845 0-37.247-6.316-55.205-18.938-17.958-12.628-30.309-27.653-37.066-45.072l-27.199-72.529h-119.467c-37.695 0-69.867-13.336-96.537-40.001-26.665-26.666-39.997-58.842-39.997-96.533v-477.872c0-37.694 13.332-69.873 39.997-96.532 26.67-26.67 58.844-40.006 96.537-40.006h750.936c37.692 0 69.859 13.336 96.532 40.006 26.663 26.659 39.999 58.838 39.999 96.532v477.872c0.007 37.692-13.329 69.867-39.986 96.533zM680.804 210.925c-46.755-46.757-103.017-70.142-168.801-70.142s-122.042 23.384-168.801 70.142c-46.759 46.75-70.134 103.025-70.134 168.793 0 65.789 23.382 122.045 70.134 168.805 46.754 46.759 103.019 70.134 168.801 70.134s122.045-23.381 168.801-70.134c46.757-46.754 70.136-103.016 70.136-168.805 0-65.768-23.377-122.038-70.136-168.793zM512.003 533.332c-42.313 0-78.492-15.023-108.537-45.072-30.046-30.046-45.069-66.219-45.069-108.541 0-42.306 15.023-78.484 45.069-108.53 30.046-30.040 66.222-45.063 108.537-45.063 42.308 0 78.49 15.023 108.536 45.063 30.046 30.046 45.070 66.222 45.070 108.53 0 42.321-15.025 78.494-45.070 108.541-30.044 30.048-66.228 45.072-108.536 45.072z" />
</font>
</defs>
</svg>
