<svg xmlns="http://www.w3.org/2000/svg">
<defs>
<font font-weight="400" style="fill-rule:nonzero" font-variant="normal" id="FontID0">
         <font-face id="font-face3377" font-family="Times New Roman" />
         <missing-glyph id="missing-glyph3379">
            <path id="path3381" d="M0 0z" />
         </missing-glyph>
         <glyph id="glyph3383" horiz-adv-x="277" unicode="/">
            <path id="path3385" d="M280.332 694.332l-239.831 -707.997 -39.0017 0 239.668 707.997 39.1649 0z" />
         </glyph>
         <glyph id="glyph3387" horiz-adv-x="249" unicode=".">
            <path id="path3389" d="M124.999 94.6668c15.3317,0 28.1676,-5.16786 38.499,-15.8344 10.5033,-10.499 15.6668,-23.3305 15.6668,-38.3315 0,-15.001 -5.3311,-27.6693 -15.8301,-38.3358 -10.5033,-10.499 -23.3348,-15.8301 -38.3358,-15.8301 -15.001,0 -27.8325,5.3311 -38.3315,15.8301 -10.5033,10.6665 -15.8344,23.3348 -15.8344,38.3358 0,15.3317 5.3311,28.1676 15.8344,38.6666 10.499,10.3314 23.3305,15.4993 38.3315,15.4993z" />
         </glyph>
         <glyph id="glyph3391" horiz-adv-x="332" unicode="-">
            <path id="path3393" d="M40.5009 261.168l252.499 0 0 -73.6688 -252.499 0 0 73.6688z" />
         </glyph>
         <glyph id="glyph3395" horiz-adv-x="249" unicode=",">
            <path id="path3397" d="M53.6675 -166.501l0 21.5005c33.4987,11.0016 59.5013,28.1676 77.999,51.5025 18.3345,23.3305 27.5018,47.9971 27.5018,73.9996 0,6.16449 -1.50353,11.3323 -4.33447,15.6668 -2.33262,2.83094 -4.66525,4.33018 -6.83463,4.33018 -3.66433,0 -11.4999,-3.33355 -23.4981,-9.83311 -5.83371,-2.83094 -12.0025,-4.33018 -18.5021,-4.33018 -15.9976,0 -28.6659,4.66525 -38.164,14.1633 -9.33479,9.50233 -14.1676,22.5014 -14.1676,39.0017 0,16.0019 6.16449,29.6669 18.3345,40.9992 12.1657,11.4999 27.1667,17.1661 44.6635,17.1661 21.5005,0 40.6684,-9.3305 57.3362,-28.1633 16.831,-18.6696 25.1649,-43.5037 25.1649,-74.3347 0,-33.4987 -11.6674,-64.6691 -34.8347,-93.5026 -23.3305,-28.8292 -60.1671,-51.4982 -110.664,-68.1659z" />
         </glyph>
         <glyph id="glyph3399" horiz-adv-x="564" unicode="+">
            <path id="path3401" d="M261.168 68.8318l0 243.667 -243.169 0 0 40.0026 243.169 0 0 242.666 39.1649 0 0 -242.666 244.165 0 0 -40.0026 -244.165 0 0 -243.667 -39.1649 0z" />
         </glyph>
         <glyph id="glyph3403" horiz-adv-x="499" unicode="*">
            <path id="path3405" d="M241.167 509.835c-1.3317,22.3296 -5.83371,44.6635 -13.665,66.8299 -11.0016,31.8362 -16.5002,53.8351 -16.5002,65.8333 0,17.0028 3.9994,29.8344 11.8307,38.6666 8.00309,8.83648 17.8362,13.1667 29.6669,13.1667 10.0006,0 18.8328,-4.33018 26.3333,-13.1667 7.50048,-8.83218 11.1691,-21.333 11.1691,-37.6657 0,-14.6659 -4.33447,-34.998 -12.8359,-61.168 -8.66465,-26.3333 -14,-50.4972 -15.9976,-72.4961 17.9994,11.3323 33.997,25.1649 48.3322,41.4975 22.1664,25.6675 38.6666,41.6694 49.3331,47.8338 10.834,6.16878 21.6681,9.16726 32.8329,9.16726 10.6665,0 19.6662,-3.66862 26.9992,-11.0016 7.33295,-7.16541 11.0016,-15.9976 11.0016,-25.9982 0,-12.1657 -5.3354,-22.8322 -16.1651,-32.3346 -10.6665,-9.33479 -37.5024,-18.8328 -80.5035,-28.3309 -24.9973,-5.50293 -45.832,-11.835 -62.4997,-19.0004 17.0028,-8.83648 37.67,-15.5036 62.0014,-20.0013 39.3324,-7.16541 65.1674,-16.1651 77.3332,-26.8316 12.3333,-10.834 18.3345,-22.5014 18.3345,-35.1698 0,-9.83311 -3.66862,-18.167 -11.0016,-25.3324 -7.33295,-7.16541 -15.8344,-10.834 -25.4999,-10.834 -9.83311,0 -20.6671,3.50108 -32.4978,10.3357 -11.835,6.83034 -28.0001,22.1664 -48.1689,45.832 -13.3342,16.0019 -29.8344,30.9986 -49.8314,44.9986 0.66585,-18.6653 4.49771,-38.8341 11.3323,-60.6654 11.6674,-38.3315 17.5011,-64.5016 17.5011,-78.5016 0,-12.9991 -3.83616,-23.9964 -11.6674,-33.0004 -7.83556,-8.99972 -16.1694,-13.4974 -24.8341,-13.4974 -12.1657,0 -22.9998,4.83279 -32.8329,14.1676 -6.83463,6.83034 -10.1682,17.8319 -10.1682,32.8329 0,15.4993 3.66862,34.3321 11.1691,56.3309 7.50048,22.0031 12.1657,37.1673 14.1633,45.3337 2.00185,8.33387 3.83616,20.6671 5.3354,36.9998 -19.1679,-12.8316 -35.9989,-26.8316 -50.1665,-42.4984 -23.8332,-26.6684 -41.6651,-43.6669 -53.8351,-50.8323 -8.49711,-5.16786 -17.1661,-7.83556 -26.3333,-7.83556 -10.9973,0 -20.4996,3.83616 -28.3309,11.3323 -7.83556,7.50048 -11.6674,15.6668 -11.6674,24.8341 0,8.16633 3.33355,16.6677 10.0006,25.6675 6.6671,8.99972 16.6677,16.3327 29.9976,22.1664 8.83648,3.9994 28.8335,9.16726 59.9996,15.6668 20.1688,4.16694 40.0026,10.3357 59.1705,18.5021 -17.6687,8.83218 -38.6666,15.6668 -63.0023,20.4996 -39.9983,8.49711 -64.8324,16.1651 -74.1671,22.9998 -14.6659,10.6665 -21.9988,23.8332 -21.9988,38.9974 0,8.83648 3.66433,16.8353 11.0016,24.1682 7.33295,7.33295 15.8301,11.0016 25.6632,11.0016 10.6665,0 22.0031,-3.33355 34.1689,-10.1682 11.9982,-6.83463 26.9992,-20.6671 44.8311,-41.3343 18.0037,-20.6671 36.1664,-36.6647 54.6685,-47.9971z" />
         </glyph>
         <glyph id="glyph3407" horiz-adv-x="332" unicode=")">
            <path id="path3409" d="M22.5014 673.832l0 20.4996c49.5006,-24.3315 90.6674,-53.1649 123.5,-86.5004 46.4978,-47.4988 82.4967,-103.164 107.833,-167.163 25.4999,-64.0033 38.164,-130.67 38.164,-200 0,-100.836 -24.8341,-192.835 -74.4979,-276.001 -49.6681,-83.1669 -114.668,-142.668 -195,-178.499l0 17.9994c39.9983,22.5014 72.9987,52.8342 98.8337,91.1657 25.8307,38.1683 45.1661,86.8355 57.6669,146.002 12.4965,58.9986 18.8328,120.665 18.8328,184.664 0,69.3344 -5.50293,132.667 -16.1694,190.004 -8.16633,44.9986 -18.3302,80.83 -30.5002,107.997 -12.3333,27.0035 -28.4984,53.0017 -48.6672,78.0033 -20.1645,25.1649 -46.8329,48.998 -79.9966,71.8302z" />
         </glyph>
         <glyph id="glyph3411" horiz-adv-x="332" unicode="(">
            <path id="path3413" d="M310.501 -195.833l0 -17.9994c-49.1698,24.6665 -90.169,53.6675 -123.002,86.8312 -46.8329,47.168 -82.9993,102.833 -108.332,167 -25.4999,64.1665 -38.1683,130.67 -38.1683,199.669 0,100.999 25.0016,192.998 74.6655,276.165 49.8357,83.1669 114.836,142.668 194.836,178.499l0 -20.4996c-40.0026,-22.1664 -72.8354,-52.3316 -98.6662,-90.8306 -25.6675,-38.3358 -44.8354,-87.003 -57.5037,-146.002 -12.664,-58.8311 -18.9961,-120.502 -18.9961,-184.501 0,-69.6651 5.3311,-132.998 15.9976,-189.999 8.50141,-44.9986 18.8328,-81.0018 30.8353,-108.168 11.9982,-27.1667 28.1633,-53.3325 48.4997,-78.3298 20.3321,-25.1691 47.0005,-49.0023 79.8333,-71.8345z" />
         </glyph>
         <glyph id="glyph3415" horiz-adv-x="180" unicode="'">
            <path id="path3417" d="M77.1656 392.169l-26.3333 144.498c-7.50048,39.9983 -11.3323,67.0017 -11.3323,81.0018 0,20.8304 4.33447,35.9989 12.6683,45.4969 8.49711,9.33479 20.1645,14 34.6629,14 14.6702,0 26.8359,-4.66525 36.5015,-14.3308 9.50233,-9.66987 14.3351,-22.1664 14.3351,-37.8332 0,-12.0025 -4.16694,-41.6694 -12.6683,-88.833l-26.3333 -144 -21.5005 0z" />
         </glyph>
         <glyph id="glyph3419" horiz-adv-x="777" unicode="&amp;">
            <path id="path3421" d="M510.334 426.333l205 0 0 -18.167c-28.3352,-2.16509 -49.1655,-8.50141 -62.6673,-18.8328 -13.665,-10.1682 -34.6672,-41.1667 -63.3331,-93 -28.6659,-51.6657 -60.833,-100.002 -96.6686,-145.001 29.001,-33.8338 54.836,-57.4994 77.6682,-71.0011 22.8322,-13.4974 45.6688,-20.3321 68.8318,-20.3321 22.5014,0 41.5018,6.16878 57.1686,18.3345 15.4993,12.1657 26.6684,30.1652 33.1679,53.9983l17.9994 -13.1667c-12.0025,-45.9995 -31.3336,-79.8333 -58.002,-101.665 -26.6641,-21.6681 -57.8302,-32.6696 -93.3308,-32.6696 -26.6684,0 -53.8351,7.33724 -81.3369,21.8356 -27.4975,14.3308 -57.4994,38.8341 -89.9972,73.3338 -40.3334,-35.6681 -76.8348,-60.5022 -109.169,-74.3347 -32.3303,-13.8325 -66.9974,-20.8347 -103.83,-20.8347 -53.6675,0 -96.3335,14.3351 -127.835,43.0011 -31.6687,28.6659 -47.3355,62.8348 -47.3355,102.502 0,39.5 14.1676,78.6649 42.5027,117.997 28.3309,39.1692 81.5001,79.8333 159.667,121.833 -15.336,33.8338 -25.835,61.5031 -31.3336,83.1669 -5.49864,21.6681 -8.33387,42.5027 -8.33387,62.3322 0,55.6694 20.4996,98.1678 61.4988,127.336 31.9995,22.8322 68.3334,34.1646 109.002,34.1646 38.6666,0 70.331,-11.3323 94.6668,-34.3321 24.499,-22.9998 36.6647,-51.1674 36.6647,-84.6661 0,-34.4996 -11.8307,-64.8324 -35.5006,-90.8349 -23.4981,-26.1658 -65.3307,-54.5009 -125.167,-85.4995 41.3343,-73.5013 84.5029,-141.001 129.334,-202.165 57.3362,68.3334 86.0021,126 86.0021,172.833 0,14.9967 -4.83279,28.3309 -14.6659,39.9983 -7.16971,8.83218 -17.3336,14 -30.6678,15.6668l0 18.167zm-186.666 -12.8316c40.5009,19.3311 70.6661,41.1667 90.6674,65.4982 19.997,24.499 29.9976,51.6657 29.9976,81.5001 0,23.4981 -7.16541,42.8335 -21.6681,58.1653 -14.4984,15.336 -32.4978,22.9998 -53.9983,22.9998 -28.3352,0 -49.6681,-9.83311 -64.1665,-29.6669 -14.4984,-19.6662 -21.8313,-38.9974 -21.8313,-57.8302 0,-16.0019 2.83094,-33.6663 8.32957,-53.5 5.50293,-19.6662 16.5002,-48.6672 32.6696,-87.1663zm75.6664 -305.17c-42.8335,58.6679 -72.6679,101.501 -89.3357,128.501 -16.5002,26.9992 -34.8304,60.5022 -54.6642,100.5 -39.0017,-22.3339 -68.3334,-47.168 -88.1672,-74.1671 -19.6662,-26.9992 -29.4993,-56.3309 -29.4993,-87.8321 0,-34.8347 11.3323,-65.4982 33.6663,-91.8315 22.4972,-26.3333 52.8342,-39.5 90.8306,-39.5 20.5039,0 40.3334,3.9994 59.3337,12.1657 19.0004,8.16633 45.0029,25.4999 77.8358,52.164z" />
         </glyph>
         <glyph id="glyph3423" horiz-adv-x="833" unicode="%">
            <path id="path3425" d="M679.666 677.166l-482.333 -704.5 -43.4994 0 482.333 704.5 43.4994 0zm-502 0c44.002,0 78.1665,-18.167 102.335,-54.6642 24.3315,-36.334 36.334,-78.1665 36.334,-125.502 0,-56.4985 -13.6693,-100.333 -41.0035,-131.331 -27.3299,-30.8353 -60.1628,-46.3346 -98.4986,-46.3346 -25.8307,0 -49.3331,7.00217 -70.8336,21.1655 -21.5005,14.1676 -38.6666,35.333 -51.4982,63.3331 -12.8359,28.0001 -19.3354,59.0029 -19.3354,93.1675 0,34.3321 6.49956,65.6657 19.503,94.4992 12.9991,28.8335 30.831,50.334 53.5,64.5016 22.6647,14.1676 45.832,21.1655 69.4976,21.1655zm-1.3317 -27.3342c-16.6677,0 -31.3336,-9.66557 -44.3328,-29.1643 -12.8359,-19.6662 -19.1679,-60.6654 -19.1679,-123.165 0,-45.1704 3.50108,-79.6701 10.6665,-103.503 5.49864,-17.8319 14.1676,-31.6644 25.835,-41.4975 6.99787,-5.83371 15.3317,-8.66894 25.4999,-8.66894 15.6668,0 28.9967,8.33387 39.9983,25.3324 16.3327,25.0016 24.499,66.8342 24.499,125.502 0,61.8339 -7.9988,105.333 -24.0007,130.335 -10.3314,16.6634 -23.4981,24.8298 -38.9974,24.8298zm480.834 -321.163c23.163,0 46.1628,-7.33295 69.1668,-22.0031 22.9998,-14.6659 40.6641,-35.9989 53.1649,-63.999 12.5008,-28.0001 18.8328,-58.6679 18.8328,-92.3341 0,-57.4994 -13.8325,-101.665 -41.5018,-131.997 -27.665,-30.5002 -60.3303,-45.6688 -98.1635,-45.6688 -23.6699,0 -46.8329,7.33295 -68.9993,21.9988 -22.3339,14.6702 -40.0026,35.5006 -52.8342,62.6673 -12.8359,27.1667 -19.3354,58.1696 -19.3354,93 0,34.1689 6.49956,65.5025 19.3354,93.8334 12.8316,28.3352 30.5002,49.5006 52.8342,63.5007 22.1664,14 44.8311,21.0022 67.5001,21.0022zm0.498314 -26.0025c-15.4993,0 -29.1685,-8.66465 -40.5009,-26.3333 -14.6659,-22.8322 -21.9988,-65.8333 -21.9988,-129.334 0,-58.3328 7.50048,-98.9969 22.5014,-122.164 10.9973,-16.5002 24.499,-24.8341 39.9983,-24.8341 15.001,0 28.3352,8.99972 40.1658,26.8316 15.4993,23.8332 23.3348,64.6691 23.3348,122.504 0,61.3313 -7.83556,104.165 -23.3348,128.496 -10.834,16.6677 -24.1682,24.8341 -40.1658,24.8341z" />
         </glyph>
         <glyph id="glyph3427" horiz-adv-x="499" unicode="$">
            <path id="path3429" d="M52.6666 163.168l21.5005 0c3.66433,-44.6678 17.6644,-78.8324 42.0001,-102.67 24.499,-23.6656 61.0005,-37.8332 109.5,-42.4984l0 285.169c-73.3338,45.3337 -122.169,85.332 -146.5,120.167 -17.3336,24.6665 -26.0025,54.8317 -26.0025,90.3323 0,39.9983 15.001,75.0005 44.6678,104.998 29.8344,30.0019 72.3328,48.0014 127.835,54.1702l0 44.9986 31.1661 0 0 -44.9986c26.6684,-1.66677 49.1655,-4.66954 67.3325,-9.33479 9.50233,-2.16938 40.6684,-13.5017 93.8334,-33.6663l0 -146.002 -19.0004 0c-4.33447,51.8332 -17.6644,89.6664 -40.3334,113.5 -22.6647,24.0007 -56.4985,38.1683 -101.832,42.8335l0 -247.997c81.9984,-57.3362 134.665,-99.6671 158,-126.834 23.1673,-27.1667 34.8347,-60.833 34.8347,-101.334 0,-44.8354 -17.0028,-84.3353 -50.9998,-118.667 -34.0013,-34.1689 -81.3369,-53.8351 -141.835,-58.9986l0 -62.4997 -31.1661 0 0 62.4997c-30.6678,1.3317 -59.1662,4.83279 -85.4995,10.499 -26.3333,5.66617 -55.5019,15.001 -87.5013,28.0001l0 138.334zm173.001 249.501l0 226.999c-32.6653,-3.9994 -56.8336,-14.3351 -72.6679,-31.0029 -15.6668,-16.831 -23.6656,-37.8332 -23.6656,-63.3331 0,-23.6656 7.16541,-45.832 21.5005,-66.4991 14.3308,-20.6671 39.3324,-42.8335 74.833,-66.1641zm31.1661 -394.669c24.499,4.33447 43.1643,10.3357 56.1677,18.167 18.167,11.3323 32.6653,26.3333 43.1643,44.6678 10.6665,18.3345 15.8344,38.0007 15.8344,58.8311 0,21.5005 -6.33202,41.8326 -19.1679,61.0005 -12.8316,19.1679 -44.8311,46.3346 -95.9985,81.5001l0 -264.167z" />
         </glyph>
         <glyph id="glyph3431" horiz-adv-x="499" unicode="#">
            <path id="path3433" d="M56.1677 -13.665l45.3337 222.166 -83.5019 0 0 39.9983 91.3332 0 33.6663 167.502 -124.999 0 0 38.9974 134.334 0 44.5003 222.166 40.5009 0 -44.5003 -222.166 164.667 0 47.3312 222.166 40.5009 0 -46.3346 -222.166 82.9993 0 0 -38.9974 -90.3323 0 -34.1646 -167.502 124.497 0 0 -39.9983 -132.831 0 -45.5012 -222.166 -39.5 0 44.5003 222.166 -165.668 0 -46.3303 -222.166 -40.5009 0zm94.1641 262.165l165.668 0 35.0023 167.502 -166.501 0 -34.1689 -167.502z" />
         </glyph>
         <glyph id="glyph3435" horiz-adv-x="408" unicode="&quot;">
            <path id="path3437" d="M281.333 392.169l-26.5008 142.496 -10.6665 59.1662c-0.66585,8.00309 -0.996628,16.1694 -0.996628,24.3358 0,20.4996 4.49771,35.5006 13.665,44.9986 9.16726,9.33479 21.1655,14 36.1664,14 14,0 25.6675,-4.66525 34.8347,-14 9.3305,-9.49803 14,-22.1664 14,-38.164 0,-27.6693 -3.16601,-57.6669 -9.33479,-89.834l-27.8325 -142.999 -23.3348 0zm-178.835 0l-26.8316 144.498c-7.16541,39.6675 -10.6665,66.6667 -10.6665,81.0018 0,20.8304 4.33447,35.9989 12.8316,45.4969 8.66894,9.33479 20.3364,14 35.0023,14 14.3308,0 26.1658,-4.66525 35.6681,-14.3308 9.3305,-9.66987 14.1633,-22.3339 14.1633,-38.3358 0,-12.664 -4.33018,-42.1677 -12.8316,-88.3304l-26.3333 -144 -21.0022 0z" />
         </glyph>
         <glyph id="glyph3439" horiz-adv-x="332" unicode="!">
            <path id="path3441" d="M175.832 175.333l-18.6653 0 -42.8335 395.498c-1.99755,17.1704 -2.99847,30.0019 -2.99847,38.5033 0,20.4996 5.49864,36.9998 16.3327,49.3331 11.0016,12.3333 24.0007,18.4978 39.3324,18.4978 15.3317,0 28.1676,-6.16449 38.8341,-18.4978 10.499,-12.3333 15.8344,-30.6678 15.8344,-55.1668 0,-7.83556 -0.670146,-18.6696 -2.00185,-32.6696l-43.8344 -395.498zm-9.83311 -81.165c15.001,0 27.8325,-5.16786 38.3358,-15.8344 10.6665,-10.499 15.8301,-23.1673 15.8301,-37.8332 0,-15.001 -5.16356,-27.6693 -15.8301,-38.3358 -10.5033,-10.499 -23.3348,-15.8301 -38.3358,-15.8301 -14.9967,0 -27.665,5.3311 -38.3315,15.8301 -10.499,10.6665 -15.8344,23.3348 -15.8344,38.3358 0,14.6659 5.3354,27.3342 15.8344,37.8332 10.6665,10.6665 23.3348,15.8344 38.3315,15.8344z" />
         </glyph>
         <glyph id="glyph3443" horiz-adv-x="249" unicode=" " />
         <glyph id="glyph3445" horiz-adv-x="443" unicode="?">
            <path id="path3447" d="M221.668 156.333l-20.0013 0c2.33262,40.9992 7.33295,74.833 15.3317,101.669 8.00309,26.8316 24.5033,64.3297 49.6681,112.164 19.4987,36.669 32.167,64.9999 38.0007,84.6661 5.83371,19.6662 8.83218,39.6675 8.83218,59.8363 0,41.33 -11.0016,74.1671 -33.0004,98.6662 -21.9988,24.3315 -48.8305,36.4972 -80.8342,36.4972 -28.3309,0 -50.4972,-6.6628 -66.8299,-19.997 -16.337,-13.3342 -24.5033,-27.8325 -24.5033,-43.3361 0,-12.1657 5.00032,-26.9992 14.6702,-44.5003 9.83311,-17.6644 14.6659,-30.9986 14.6659,-39.9983 0,-11.835 -3.66862,-21.6681 -11.1691,-29.6669 -7.50048,-7.83126 -16.6634,-11.835 -27.3299,-11.835 -13.6693,0 -26.1701,6.6671 -37.3349,20.1688 -11.3323,13.5017 -16.8353,32.3346 -16.8353,56.4985 0,36.669 15.6668,69.3344 47.3355,97.6695 31.5012,28.3309 74.3304,42.3309 128.333,42.3309 67.165,0 116.335,-19.4987 147.999,-58.5003 23.5024,-28.6659 35.1655,-60.3303 35.1655,-95.1651 0,-23.8332 -5.3311,-48.1689 -15.8301,-73.3338 -10.6665,-25.0016 -30.6678,-54.5009 -60.3346,-88.3347 -47.168,-53.3325 -76.169,-91.1657 -86.668,-113.5 -10.6665,-22.3339 -16.9985,-52.9974 -19.3311,-91.9991zm-6.83463 -60.6654c15.3317,0 28.3352,-5.3354 38.8341,-15.8344 10.499,-10.499 15.8344,-23.4981 15.8344,-38.8341 0,-15.001 -5.3354,-27.665 -16.0019,-38.3315 -10.834,-10.499 -23.6656,-15.8344 -38.6666,-15.8344 -15.001,0 -27.665,5.3354 -38.3315,15.8344 -10.5033,10.6665 -15.8344,23.3305 -15.8344,38.3315 0,15.336 5.3311,28.3352 15.8344,38.8341 10.6665,10.499 23.3305,15.8344 38.3315,15.8344z" />
         </glyph>
         <glyph id="glyph3449" horiz-adv-x="564" unicode="&gt;">
            <path id="path3451" d="M543.502 318.835l-525.502 -227.502 0 42.0001 452.667 196.331 -452.667 198.17 0 44.5003 525.502 -229.504 0 -23.9964z" />
         </glyph>
         <glyph id="glyph3453" horiz-adv-x="564" unicode="=">
            <path id="path3455" d="M17.9994 431.166l527.001 0 0 -39.9983 -527.001 0 0 39.9983zm0 -159.164l527.001 0 0 -40.0026 -527.001 0 0 40.0026z" />
         </glyph>
         <glyph id="glyph3457" horiz-adv-x="564" unicode="&lt;">
            <path id="path3459" d="M17.9994 344.666l525.502 227.669 0 -42.5027 -452.168 -196.331 452.168 -198.166 0 -44.002 -525.502 229.499 0 23.8332z" />
         </glyph>
         <glyph id="glyph3461" horiz-adv-x="277" unicode=";">
            <path id="path3463" d="M137.668 461.499c15.001,0 27.8325,-5.3311 38.3315,-15.6668 10.6665,-10.499 15.8344,-23.1673 15.8344,-38.164 0,-15.001 -5.16786,-27.6693 -15.8344,-38.3358 -10.499,-10.499 -23.3305,-15.8344 -38.3315,-15.8344 -15.001,0 -27.6693,5.3354 -38.3358,15.8344 -10.499,10.6665 -15.8301,23.3348 -15.8301,38.3358 0,14.9967 5.3311,27.665 15.8301,38.164 10.6665,10.3357 23.3348,15.6668 38.3358,15.6668zm-68.3334 -628l0 21.5005c33.4987,11.0016 59.497,28.1676 77.8315,51.5025 18.5021,23.3305 27.6693,47.9971 27.6693,73.9996 0,6.16449 -1.50353,11.3323 -4.50201,15.6668 -2.16509,2.83094 -4.49771,4.33018 -6.83463,4.33018 -3.49679,0 -11.3323,-3.33355 -23.3305,-9.83311 -5.83371,-2.83094 -12.0025,-4.33018 -18.5021,-4.33018 -15.9976,0 -28.6659,4.66525 -38.164,14.1633 -9.50233,9.50233 -14.1676,22.5014 -14.1676,39.0017 0,16.0019 6.16449,29.6669 18.3302,40.9992 12.17,11.4999 27.0035,17.1661 44.6678,17.1661 21.5005,0 40.6684,-9.3305 57.3362,-28.1633 16.831,-18.6696 25.1649,-43.5037 25.1649,-74.3347 0,-33.4987 -11.6674,-64.6691 -34.8347,-93.5026 -23.3305,-28.8292 -60.1671,-51.4982 -110.664,-68.1659z" />
         </glyph>
         <glyph id="glyph3465" horiz-adv-x="277" unicode=":">
            <path id="path3467" d="M141.165 461c15.001,0 27.6693,-5.3354 38.3358,-16.0019 10.499,-10.499 15.8344,-23.3305 15.8344,-38.3315 0,-14.8334 -5.3354,-27.665 -15.8344,-38.3358 -10.6665,-10.499 -23.3348,-15.8301 -38.3358,-15.8301 -14.9967,0 -27.8325,5.3311 -38.3315,15.8301 -10.6665,10.6708 -16.0019,23.5024 -16.0019,38.3358 0,15.001 5.3354,27.8325 16.0019,38.3315 10.499,10.6665 23.3348,16.0019 38.3315,16.0019zm-0.996628 -365.835c15.3317,0 28.1633,-5.3311 38.8341,-15.9976 10.499,-10.834 15.8301,-23.6656 15.8301,-38.6666 0,-15.001 -5.3311,-27.6693 -16.1651,-38.3358 -10.6665,-10.499 -23.5024,-15.8301 -38.499,-15.8301 -15.001,0 -27.8325,5.3311 -38.3358,15.8301 -10.6665,10.6665 -15.8301,23.3348 -15.8301,38.3358 0,15.001 5.16356,27.8325 15.8301,38.6666 10.5033,10.6665 23.3348,15.9976 38.3358,15.9976z" />
         </glyph>
         <glyph id="glyph3469" horiz-adv-x="499" unicode="9">
            <path id="path3471" d="M52.6666 -13.665l0 17.9994c42.3352,0.66585 81.8352,10.499 118.165,29.6669 36.5015,19.0004 71.8345,52.3316 105.836,99.8303 34.0013,47.5031 57.6669,99.6671 71.0011,156.668 -51.1674,-32.8329 -97.3345,-49.3331 -138.669,-49.3331 -46.4978,0 -86.5004,17.9994 -119.668,53.9983 -33.1636,36.0032 -49.8314,83.6695 -49.8314,143.334 0,58.002 16.6677,109.5 49.8314,154.834 40.0026,54.9992 92.3341,82.501 156.836,82.501 54.3334,0 100.831,-22.5014 139.498,-67.5001 47.6663,-55.6651 71.3362,-124.334 71.3362,-206.001 0,-73.5013 -17.9994,-142.166 -54.1659,-205.834 -36.1707,-63.6639 -86.5004,-116.498 -150.834,-158.331 -52.4991,-34.6672 -109.5,-51.8332 -171.502,-51.8332l-27.8325 0zm302.833 340.331c5.83371,42.3352 8.83218,76.169 8.83218,101.501 0,31.6644 -5.49864,65.6657 -16.1651,102.33 -10.834,36.669 -25.9982,64.6691 -45.6688,84.1678 -19.6662,19.6662 -42.0001,29.3361 -67.165,29.3361 -29.001,0 -54.3334,-13.0034 -76.1647,-39.0017 -21.8356,-25.9982 -32.6696,-64.8324 -32.6696,-116.167 0,-68.6685 14.5027,-122.499 43.4994,-161.166 21.0022,-28.0001 47.168,-42.0001 78.0033,-42.0001 14.9967,0 32.8329,3.50108 53.3325,10.6665 20.4996,7.16541 38.499,17.3336 54.1659,30.3327z" />
         </glyph>
         <glyph id="glyph3473" horiz-adv-x="499" unicode="8">
            <path id="path3475" d="M191.834 333.501c-52.3316,43.0011 -86.1653,77.5007 -101.334,103.499 -15.001,25.9982 -22.6647,53.0017 -22.6647,81.0018 0,42.9968 16.6634,79.9966 49.8314,111.167 33.1679,30.9986 77.3332,46.6654 132.332,46.6654 53.3325,0 96.3335,-14.5027 128.836,-43.4994 32.6653,-29.001 48.8305,-62.0014 48.8305,-99.1688 0,-24.6665 -8.66465,-49.9989 -26.3333,-75.6664 -17.4968,-25.6675 -54.1659,-56.0002 -109.831,-90.8349 57.3319,-44.1652 95.1651,-78.9999 113.835,-104.5 24.6665,-33.1636 36.9998,-68.1659 36.9998,-104.998 0,-46.4978 -17.6687,-86.3329 -53.1692,-119.333 -35.5006,-33.0004 -81.9984,-49.5006 -139.665,-49.5006 -62.8348,0 -111.833,19.6662 -147.003,58.9986 -28.0001,31.6687 -42.0001,66.1684 -42.0001,103.503 0,29.3318 9.8374,58.3328 29.6669,87.1663 19.6705,28.8335 53.5,60.6654 101.669,95.5001zm76.6673 52.164c39.1649,35.1698 63.8314,63.0023 74.3304,83.3344 10.3357,20.3321 15.5036,43.3361 15.5036,69.1668 0,34.1689 -9.50233,60.833 -28.6702,80.1684 -19.3311,19.4987 -45.4969,29.1643 -78.6649,29.1643 -33.1679,0 -60.1671,-9.66557 -81.0018,-28.8335 -20.8304,-19.1636 -31.3293,-41.6651 -31.3293,-67.3325 0,-16.9985 4.33018,-33.8338 12.9991,-50.8323 8.49711,-16.9985 20.8304,-33.0004 36.8323,-48.3322l80.0009 -66.5034zm-53.6675 -70.6661c-26.9992,-22.8322 -47.0005,-47.6663 -59.9996,-74.4979 -12.9991,-26.8359 -19.4987,-56.0002 -19.4987,-87.1663 0,-42.0001 11.3323,-75.6664 34.3321,-100.836 22.9998,-25.1649 52.164,-37.8332 87.6646,-37.8332 35.1698,0 63.3331,9.83311 84.5029,29.8344 21.1655,19.8338 31.6644,43.8344 31.6644,72.1653 0,23.5024 -6.16449,44.5003 -18.4978,63.0023 -23.1673,34.4996 -69.8327,79.6658 -140.168,135.331z" />
         </glyph>
         <glyph id="glyph3477" horiz-adv-x="499" unicode="7">
            <path id="path3479" d="M100.668 662.165l354.834 0 0 -18.6653 -220.667 -657.164 -54.6685 0 197.835 596.164 -182.168 0c-36.8323,0 -62.998,-4.33018 -78.6649,-13.1667 -27.3342,-15.001 -49.3331,-38.0007 -65.8333,-69.3344l-14.1676 5.3354 63.5007 156.831z" />
         </glyph>
         <glyph id="glyph3481" horiz-adv-x="499" unicode="6">
            <path id="path3483" d="M448.165 675.834l0 -18.167c-42.8292,-4.16694 -77.999,-12.6683 -105.166,-25.6675 -27.1667,-12.8316 -53.9983,-32.3346 -80.4992,-58.8311 -26.5008,-26.3333 -48.4997,-55.6694 -66.0008,-87.9997 -17.3336,-32.5021 -31.9995,-71.0011 -43.6669,-115.501 46.8329,32.167 93.8334,48.3322 141.169,48.3322 45.1661,0 84.4986,-18.3345 117.667,-54.6642 33.1679,-36.5015 49.8314,-83.3344 49.8314,-140.671 0,-55.33 -16.831,-105.832 -50.334,-151.333 -40.3334,-55.33 -93.8334,-82.9993 -160.165,-82.9993 -45.3337,0 -83.6652,15.001 -115.334,44.8354 -61.8339,58.3328 -92.6649,133.832 -92.6649,226.664 0,59.1662 11.8307,115.501 35.6638,168.834 23.6699,53.5 57.6669,100.836 101.836,142.166 43.9977,41.3343 86.3329,69.1668 126.666,83.5019 40.3334,14.3351 77.999,21.5005 112.834,21.5005l28.1633 0zm-303.666 -341.835c-5.82941,-43.9977 -8.83218,-79.4982 -8.83218,-106.497 0,-31.1704 5.83371,-65.1674 17.3336,-101.836 11.6674,-36.4972 28.8335,-65.6657 51.6657,-87.1663 16.5002,-15.1642 36.669,-22.8322 60.5022,-22.8322 28.3309,0 53.6675,13.3342 75.8339,39.9983 22.3339,26.6684 33.4987,64.8367 33.4987,114.333 0,55.6694 -11.0016,103.834 -33.1679,144.502 -22.1664,40.6641 -53.5,61.0005 -94.3317,61.0005 -12.3333,0 -25.4999,-2.6677 -39.6675,-7.83556 -14.1676,-5.16356 -35.1655,-16.5002 -62.8348,-33.6663z" />
         </glyph>
         <glyph id="glyph3485" horiz-adv-x="499" unicode="5">
            <path id="path3487" d="M434.165 662.165l-38.164 -82.9993 -199.167 0 -43.4994 -89.0006c86.3329,-12.664 154.666,-44.6635 205,-96.166 43.3318,-44.1652 64.9999,-96.3335 64.9999,-156.166 0,-34.8347 -7.00217,-67.165 -21.1697,-96.6686 -14.1633,-29.6626 -31.9995,-54.8317 -53.5,-75.6664 -21.5005,-20.8304 -45.4969,-37.6657 -71.8302,-50.3297 -37.3349,-18.0037 -75.8339,-26.8359 -115.166,-26.8359 -39.835,0 -68.6685,6.6671 -86.668,20.1688 -18.167,13.4974 -27.1667,28.4984 -27.1667,44.6635 0,9.16726 3.83186,17.1704 11.1648,24.1682 7.50048,7.00217 17.0028,10.499 28.3352,10.499 8.50141,0 15.9976,-1.16416 22.3339,-3.83186 6.33202,-2.6677 17.1661,-9.33479 32.4978,-20.0013 24.3358,-16.9985 49.0023,-25.4999 74.1671,-25.4999 38.0007,0 71.4995,14.5027 100.333,43.3361 28.8335,28.8335 43.1686,63.8314 43.1686,105.166 0,39.9983 -12.8359,77.3332 -38.499,112 -25.835,34.6672 -61.168,61.4988 -106.502,80.3316 -35.5006,14.6659 -83.8327,23.1673 -145.001,25.4999l127.001 257.332 237.331 0z" />
         </glyph>
         <glyph id="glyph3489" horiz-adv-x="499" unicode="4">
            <path id="path3491" d="M465.335 244.165l0 -69.3301 -88.833 0 0 -174.835 -80.6667 0 0 174.835 -280.168 0 0 62.4997 307.168 438.499 53.6675 0 0 -431.669 88.833 0zm-169.5 0l0 328.668 -232.335 -328.668 232.335 0z" />
         </glyph>
         <glyph id="glyph3493" horiz-adv-x="499" unicode="3">
            <path id="path3495" d="M50.8323 536.169c18.8328,44.496 42.666,78.9999 71.4995,103.164 28.8335,24.3358 64.6691,36.5015 107.67,36.5015 52.9974,0 93.6658,-17.3336 121.997,-51.8332 21.5005,-25.6675 32.3346,-53.1692 32.3346,-82.501 0,-48.1646 -30.3327,-98.0003 -90.8349,-149.331 40.6684,-16.0019 71.3362,-38.8341 92.1666,-68.501 20.8347,-29.4993 31.3336,-64.334 31.3336,-104.5 0,-57.1686 -18.167,-106.832 -54.6642,-148.833 -47.5031,-54.6685 -116.335,-82.0027 -206.5,-82.0027 -44.6678,0 -75.0005,5.49864 -91.17,16.5002 -15.9976,11.1691 -24.1639,22.9998 -24.1639,35.6681 0,9.49803 3.83186,17.8319 11.4999,24.9973 7.66802,7.16971 16.831,10.6665 27.665,10.6665 7.9988,0 16.3327,-1.3317 24.8341,-3.83186 5.49864,-1.66677 17.9994,-7.66802 37.6657,-17.8319 19.503,-10.3357 33.0004,-16.3327 40.5009,-18.3345 11.9982,-3.66433 24.8341,-5.3311 38.499,-5.3311 33.1679,0 62.169,12.8316 86.668,38.499 24.6665,25.6675 36.8323,56.1677 36.8323,91.3332 0,25.6675 -5.66617,50.8323 -16.9985,75.1638 -8.50141,18.167 -17.8319,32.0038 -27.8325,41.5018 -14,12.9991 -33.1679,24.8341 -57.6669,35.333 -24.3358,10.6665 -49.3331,16.0019 -74.6698,16.0019l-15.6625 0 0 14.6659c25.6632,3.16601 51.4982,12.5008 77.3332,27.8325 25.9982,15.1685 44.8311,33.6663 56.4985,55.1668 11.6674,21.5005 17.5011,44.9986 17.5011,70.6661 0,33.6663 -10.5033,60.6654 -31.5012,81.3326 -21.0022,20.6671 -47.0005,31.0029 -78.3341,31.0029 -50.5015,0 -92.5017,-27.0035 -126.499,-81.0018l-16.0019 7.83556z" />
         </glyph>
         <glyph id="glyph3497" horiz-adv-x="499" unicode="2">
            <path id="path3499" d="M458.5 127.5l-46.3346 -127.5 -390.665 0 0 17.9994c114.831,104.835 195.833,190.502 242.666,256.834 46.8329,66.4991 70.3353,127.169 70.3353,182.168 0,42.0001 -12.8359,76.4998 -38.6666,103.499 -25.6675,26.9992 -56.3352,40.5009 -92.1666,40.5009 -32.6696,0 -61.8339,-9.50233 -87.6689,-28.5027 -25.835,-19.0004 -44.9986,-46.9962 -57.3319,-83.6652l-18.167 0c8.16633,60.1671 29.001,106.334 62.8305,138.669 33.6706,32.167 75.6707,48.3322 126.168,48.3322 53.6675,0 98.4986,-17.3336 134.502,-51.8332 35.9989,-34.4996 53.9983,-75.1681 53.9983,-122.001 0,-33.4987 -7.83126,-67.165 -23.4981,-100.668 -24.0007,-52.6666 -63.1699,-108.499 -117.168,-167.498 -81.0018,-88.5023 -131.667,-141.835 -151.831,-160.169l172.833 0c35.1655,0 59.832,1.336 73.9996,4.00369 14.1633,2.50016 26.9992,7.83126 38.3315,15.8301 11.3323,8.00309 21.333,19.3354 29.8344,34.0013l17.9994 0z" />
         </glyph>
         <glyph id="glyph3501" horiz-adv-x="499" unicode="1">
            <path id="path3503" d="M117.168 597.165l161.166 78.6692 16.1651 0 0 -559.168c0,-36.9998 1.49924,-60.1671 4.50201,-69.3344 3.16601,-8.99972 9.66557,-15.9976 19.3311,-20.9979 9.83311,-4.83279 29.6669,-7.66802 59.6688,-8.33387l0 -17.9994 -249.17 0 0 17.9994c31.3336,0.66585 51.5025,3.33355 60.6697,8.16633 8.99972,4.66954 15.3317,11.0016 19.0004,19.0004 3.49679,7.9988 5.3311,31.8319 5.3311,71.4995l0 357.502c0,48.1646 -1.66677,78.9999 -4.83279,92.6649 -2.33262,10.5033 -6.49956,18.167 -12.5008,22.9998 -5.99695,4.83279 -13.1667,7.33295 -21.6638,7.33295 -12.0025,0 -28.8335,-4.99603 -50.334,-15.1642l-7.33295 15.1642z" />
         </glyph>
         <glyph id="glyph3505" horiz-adv-x="499" unicode="0">
            <path id="path3507" d="M36.1664 327.165c0,75.5031 11.3323,140.503 34.1689,195.004 22.8322,54.4966 52.9974,95.1651 90.8306,121.833 29.3361,21.1655 59.5013,31.8319 90.8349,31.8319 50.6648,0 96.3335,-26.0025 136.667,-77.6682 50.4972,-64.1665 75.6664,-150.998 75.6664,-260.833 0,-76.8348 -11.0016,-141.998 -33.1679,-195.666 -22.1664,-53.8351 -50.334,-92.8324 -84.6661,-117.001 -34.3321,-24.3315 -67.5001,-36.334 -99.4995,-36.334 -63.0023,0 -115.669,37.1673 -157.669,111.833 -35.4963,62.8348 -53.1649,138.501 -53.1649,226.999zm95.6677 -12.1657c0,-91.1657 11.1648,-165.664 33.6663,-223.167 18.4978,-48.4997 46.3346,-72.8312 82.9993,-72.8312 17.6687,0 35.8356,7.9988 54.6685,23.6656 19.0004,15.8344 33.3312,42.3352 42.9968,79.335 15.001,56.0002 22.5014,135 22.5014,236.832 0,75.4989 -7.83126,138.501 -23.4981,188.998 -11.6674,37.5024 -26.8359,64.0033 -45.3337,79.6701 -13.3342,10.6665 -29.4993,15.9976 -48.3364,15.9976 -22.1664,0 -41.8326,-9.83311 -59.1662,-29.6669 -23.3305,-26.9992 -39.3324,-69.4976 -47.8338,-127.5 -8.49711,-57.9977 -12.664,-114.999 -12.664,-171.334z" />
         </glyph>
         <glyph id="glyph3509" horiz-adv-x="722" unicode="O">
            <path id="path3511" d="M365.668 677.166c85.9978,0 160.5,-32.4978 223.498,-97.8328 63.0023,-65.335 94.4992,-146.668 94.4992,-244.333 0,-100.668 -31.8319,-184.166 -95.3326,-250.502 -63.5007,-66.4991 -140.331,-99.6671 -230.5,-99.6671 -90.9981,0 -167.665,32.5021 -229.667,97.1669 -61.9971,64.8367 -93,148.669 -93,251.502 0,105.166 35.8356,190.833 107.335,257.332 62.3322,57.6669 136.667,86.3329 223.167,86.3329zm-9.16726 -35.5006c-59.3337,0 -106.832,-21.9988 -142.668,-65.9965 -44.5003,-54.6685 -66.8342,-134.669 -66.8342,-240.17 0,-108.164 23.1673,-191.331 69.3344,-249.496 35.5006,-44.337 82.3335,-66.5034 140.666,-66.5034 62.169,0 113.5,24.3358 154,72.8354 40.5009,48.4997 60.833,124.999 60.833,229.499 0,113.165 -22.3339,197.667 -66.9974,253.332 -35.8356,44.3328 -85.1687,66.4991 -148.334,66.4991z" />
         </glyph>
         <glyph id="glyph3513" horiz-adv-x="722" unicode="N">
            <path id="path3515" d="M-13.1667 662.165l179.668 0 404.833 -496.664 0 381.833c0,40.6684 -4.66954,66.1684 -13.6693,76.1647 -12.1657,13.6693 -31.1661,20.5039 -57.1643,20.5039l-22.9998 0 0 18.1627 230.5 0 0 -18.1627 -23.5024 0c-28.0001,0 -47.8338,-8.50141 -59.497,-25.3367 -7.16971,-10.499 -10.6665,-34.1646 -10.6665,-71.3319l0 -558 -17.6687 0 -436.501 533.166 0 -407.831c0,-40.6684 4.33447,-66.0008 13.1667,-76.169 12.3333,-13.665 31.5012,-20.4996 57.1686,-20.4996l23.3348 0 0 -17.9994 -230.337 0 0 17.9994 22.8365 0c28.3309,0 48.3322,8.50141 60.1671,25.4999 7.16541,10.3357 10.6665,34.1689 10.6665,71.1687l0 460.498c-19.1679,22.5014 -33.8338,37.3349 -43.6669,44.5003 -10.0006,7.16541 -24.5033,13.8325 -43.6669,20.0013 -9.50233,2.83094 -23.8332,4.33447 -43.0011,4.33447l0 18.1627z" />
         </glyph>
         <glyph id="glyph3517" horiz-adv-x="889" unicode="M">
            <path id="path3519" d="M409.167 0l-255.833 557.166 0 -442.498c0,-40.6684 4.33018,-66.0008 13.1667,-76.169 11.9982,-13.665 31.1661,-20.4996 57.1643,-20.4996l23.3348 0 0 -17.9994 -230.333 0 0 17.9994 23.3305 0c28.0001,0 47.8338,8.50141 59.6688,25.4999 7.16541,10.3357 10.6665,34.1689 10.6665,71.1687l0 432.665c0,29.3318 -3.16601,50.5015 -9.66557,63.5007 -4.66954,9.49803 -13.0034,17.3336 -25.1691,23.6656 -12.3333,6.33202 -31.8319,9.50233 -58.8311,9.50233l0 18.1627 187.499 0 240.166 -518.165 236.334 518.165 187.499 0 0 -18.1627 -22.9998 0c-28.3309,0 -48.3322,-8.50141 -59.9996,-25.3367 -7.16541,-10.499 -10.834,-34.1646 -10.834,-71.3319l0 -432.665c0,-40.6684 4.66954,-66.0008 13.8325,-76.169 12.0025,-13.665 31.0029,-20.4996 57.0011,-20.4996l22.9998 0 0 -17.9994 -281.333 0 0 17.9994 23.4981 0c28.3352,0 48.1689,8.50141 59.6688,25.4999 7.16541,10.3357 10.6665,34.1689 10.6665,71.1687l0 442.498 -255.334 -557.166 -16.1651 0z" />
         </glyph>
         <glyph id="glyph3521" horiz-adv-x="610" unicode="L">
            <path id="path3523" d="M573.168 183.165l16.1651 -3.49679 -56.666 -179.668 -512.666 0 0 17.9994 24.9973 0c28.0001,0 48.0014,9.16726 59.9996,27.3342 6.83463,10.499 10.1682,34.6672 10.1682,72.3328l0 427.334c0,41.3343 -4.49771,67.165 -13.665,77.5007 -12.6683,14.3308 -31.5012,21.5005 -56.5028,21.5005l-24.9973 0 0 18.1627 299.83 0 0 -18.1627c-35.1655,0.330777 -59.832,-2.83523 -73.9996,-9.66987 -14.1633,-6.83034 -23.8332,-15.4993 -28.9967,-25.9982 -5.16786,-10.3357 -7.83556,-35.333 -7.83556,-74.6655l0 -416.002c0,-26.9992 2.6677,-45.5012 7.83556,-55.6651 3.83186,-6.83463 9.83311,-11.835 17.9994,-15.1685 8.16633,-3.16601 33.4987,-4.83279 76.1647,-4.83279l48.3322 0c50.8366,0 86.5004,3.66862 107,11.1648 20.4996,7.50048 39.1692,20.8347 56.1677,39.835 16.8353,19.0004 33.8338,49.1655 50.6691,90.1647z" />
         </glyph>
         <glyph id="glyph3525" horiz-adv-x="722" unicode="K">
            <path id="path3527" d="M298.834 367.167l244.165 -242.666c40.0026,-40.0026 74.1671,-67.3325 102.502,-81.8352 28.3309,-14.4984 56.666,-22.6647 84.9969,-24.6665l0 -17.9994 -314.999 0 0 17.9994c18.8328,0 32.5021,3.16601 40.836,9.66557 8.32957,6.33632 12.4965,13.3342 12.4965,21.1697 0,7.83126 -1.66677,14.8334 -4.66525,20.9979 -3.16601,6.16878 -13.3342,17.6687 -30.5002,34.6672l-228.666 225.998 0 -213.33c0,-33.503 2.16509,-55.6694 6.49956,-66.3359 3.16601,-8.16633 10.0006,-15.1642 20.4996,-20.9979 14,-7.83556 28.6659,-11.835 44.3328,-11.835l22.5014 0 0 -17.9994 -282.166 0 0 17.9994 23.3305 0c27.3342,0 47.168,7.9988 59.6688,24.0007 7.83126,10.3314 11.6674,35.5006 11.6674,75.1681l0 427.833c0,33.4987 -2.16938,55.8326 -6.33632,66.8342 -3.33355,7.83126 -9.99635,14.6659 -19.997,20.4996 -14.3351,7.83126 -29.3361,11.6674 -45.0029,11.6674l-23.3305 0 0 18.1627 282.166 0 0 -18.1627 -22.5014 0c-15.3317,0 -29.9976,-3.66862 -44.3328,-11.1691 -10.1682,-5.16786 -17.1661,-12.9991 -20.9979,-23.4981 -4.00369,-10.3357 -6.00125,-31.8362 -6.00125,-64.334l0 -202.668c6.6671,6.16878 28.8335,26.8316 67.0017,62.0014 96.6643,88.498 155.165,147.664 175.329,177.163 8.66894,13.0034 13.1667,24.5033 13.1667,34.1689 0,7.50048 -3.49679,14.1676 -10.3314,19.8338 -6.83463,5.66617 -18.3345,8.50141 -34.6672,8.50141l-15.1642 0 0 18.1627 243.164 0 0 -18.1627c-14.3308,-0.335073 -27.3342,-2.16938 -38.9974,-5.83371 -11.6674,-3.50108 -26.0025,-10.5033 -43.0011,-20.6671 -16.8353,-10.3357 -37.6657,-26.8359 -62.4997,-49.6681 -7.16971,-6.49956 -40.1658,-39.835 -99.1688,-99.9979l-100.999 -100.668z" />
         </glyph>
         <glyph id="glyph3529" horiz-adv-x="389" unicode="J">
            <path id="path3531" d="M99.6671 644.002l0 18.1627 283.665 0 0 -18.1627 -24.0007 0c-26.9992,0 -46.6654,-8.00309 -58.9986,-23.8374 -7.83126,-10.499 -11.835,-35.4963 -11.835,-75.1638l0 -323.835c0,-49.8314 -5.3311,-90.1647 -16.3327,-121 -10.834,-30.9986 -29.6669,-57.9977 -56.3309,-80.83 -26.6684,-23.0041 -59.0029,-34.5039 -96.6686,-34.5039 -30.6678,0 -54.6642,7.66802 -72.3328,22.669 -17.5011,15.1642 -26.3333,32.4978 -26.3333,52.0008 0,15.9976 3.9994,28.0001 12.1657,36.1664 10.834,10.1639 23.3348,15.1642 37.67,15.1642 10.3314,0 19.8295,-3.33355 28.0001,-10.1639 8.32957,-6.83463 18.8328,-25.1691 31.4969,-54.836 7.50048,-17.4968 17.1661,-26.3333 28.8335,-26.3333 8.83218,0 17.0028,5.3354 24.6665,16.1694 7.66802,10.6665 11.4999,29.8301 11.4999,57.1643l0 452.168c0,33.4987 -2.16509,55.6651 -6.33202,66.3316 -3.33355,8.16633 -10.1682,15.1685 -20.4996,21.0022 -14,7.83126 -28.8335,11.6674 -44.5003,11.6674l-23.8332 0z" />
         </glyph>
         <glyph id="glyph3533" horiz-adv-x="332" unicode="I">
            <path id="path3535" d="M308.667 17.9994l0 -17.9994 -283.833 0 0 17.9994 23.4981 0c27.3342,0 47.168,7.9988 59.5013,24.0007 7.83126,10.3314 11.835,35.5006 11.835,75.1681l0 427.833c0,33.4987 -2.16938,55.6651 -6.33632,66.3316 -3.33355,8.16633 -10.0006,15.1685 -19.997,21.0022 -14.3351,7.83126 -29.3361,11.6674 -45.0029,11.6674l-23.4981 0 0 18.1627 283.833 0 0 -18.1627 -24.0007 0c-26.9992,0 -46.6654,-8.00309 -58.9986,-23.8374 -8.16633,-10.499 -12.3333,-35.4963 -12.3333,-75.1638l0 -427.833c0,-33.503 2.16509,-55.6694 6.33202,-66.3359 3.33355,-8.16633 10.1682,-15.1642 20.4996,-20.9979 14,-7.83556 28.8335,-11.835 44.5003,-11.835l24.0007 0z" />
         </glyph>
         <glyph id="glyph3537" horiz-adv-x="722" unicode="H">
            <path id="path3539" d="M205.499 355.001l307.67 0 0 189.497c0,33.8338 -2.16938,56.1677 -6.33632,66.8342 -3.33355,8.16633 -10.1639,15.1685 -20.4996,21.0022 -14,7.83126 -28.8335,11.6674 -44.5003,11.6674l-23.3305 0 0 18.1627 283.163 0 0 -18.1627 -23.4981 0c-15.4993,0 -30.3327,-3.66862 -44.3328,-11.1691 -10.499,-5.16786 -17.5011,-13.1667 -21.333,-23.6656 -3.66862,-10.6665 -5.50293,-32.167 -5.50293,-64.6691l0 -427.33c0,-33.503 2.00185,-55.6694 6.33632,-66.3359 3.16601,-8.16633 9.83311,-15.1642 19.997,-20.9979 14.3351,-7.83556 29.3361,-11.835 44.8354,-11.835l23.4981 0 0 -17.9994 -283.163 0 0 17.9994 23.3305 0c26.9992,0 46.8329,7.9988 59.1662,24.0007 8.16633,10.3314 12.17,35.5006 12.17,75.1681l0 201.667 -307.67 0 0 -201.667c0,-33.503 2.16938,-55.6694 6.33632,-66.3359 3.33355,-8.16633 10.1639,-15.1642 20.6671,-20.9979 14,-7.83556 28.6659,-11.835 44.3328,-11.835l23.9964 0 0 -17.9994 -283.665 0 0 17.9994 23.3348 0c27.3342,0 47.1637,7.9988 59.6645,24.0007 7.66802,10.3314 11.6674,35.5006 11.6674,75.1681l0 427.33c0,33.8338 -2.16509,56.1677 -6.33202,66.8342 -3.33355,8.16633 -10.0006,15.1685 -20.0013,21.0022 -14.3308,7.83126 -29.3318,11.6674 -44.9986,11.6674l-23.3348 0 0 18.1627 283.665 0 0 -18.1627 -23.9964 0c-15.6668,0 -30.3327,-3.66862 -44.3328,-11.1691 -10.1682,-5.16786 -17.1704,-13.1667 -21.0022,-23.6656 -3.9994,-10.6665 -6.00125,-32.167 -6.00125,-64.6691l0 -189.497z" />
         </glyph>
         <glyph id="glyph3541" horiz-adv-x="722" unicode="G">
            <path id="path3543" d="M613.833 677.166l17.0028 -208.832 -17.0028 0c-17.3336,52.0008 -39.6675,91.1657 -66.9974,117.667 -39.3367,38.0007 -90.0015,57.0011 -151.835,57.0011 -84.331,0 -148.498,-33.3355 -192.332,-100.002 -36.8323,-56.3309 -55.1668,-123.333 -55.1668,-201.164 0,-63.1699 12.1657,-120.837 36.4972,-172.833 24.5033,-52.1683 56.5028,-90.3366 96.0027,-114.501 39.5,-24.3358 80.1641,-36.5015 121.833,-36.5015 24.499,0 47.9971,3.16601 70.8336,9.33479 22.8322,6.16449 44.6635,15.3317 65.8333,27.3342l0 191.499c0,33.1679 -2.50016,54.8317 -7.50048,65.1674 -5.00032,10.1639 -12.8359,17.9994 -23.5024,23.3305 -10.499,5.50293 -29.1643,8.16633 -55.8326,8.16633l0 18.5021 256.335 0 0 -18.5021 -12.1657 0c-25.4999,0 -42.8335,-8.49711 -52.3358,-25.4999 -6.49956,-11.9982 -9.66557,-35.8313 -9.66557,-71.1644l0 -202.668c-37.5024,-20.1645 -74.5022,-34.998 -110.832,-44.5003 -36.5015,-9.49803 -77.0024,-14.1676 -121.67,-14.1676 -127.83,0 -224.997,41.0035 -291.496,123.002 -49.8357,61.6663 -74.6698,132.5 -74.6698,212.999 0,58.1696 14,114.002 42.0001,167.502 33.1679,63.5007 78.8324,112.331 136.667,146.5 48.4997,28.3309 105.836,42.3309 171.832,42.3309 24.1682,0 46.0038,-1.83431 65.8333,-5.83371 19.6705,-3.83186 47.5031,-12.4965 83.6695,-25.8307 18.167,-6.83463 30.5002,-10.1682 36.6647,-10.1682 6.16878,0 11.4999,2.83523 15.8344,8.50141 4.33447,5.66617 6.99787,16.831 7.9988,33.3312l18.167 0z" />
         </glyph>
         <glyph id="glyph3545" horiz-adv-x="556" unicode="F">
            <path id="path3547" d="M204.665 625.998l0 -260.33 120.502 0c27.665,0 48.0014,6.16449 60.833,18.3302 12.8316,12.17 21.333,36.334 25.6675,72.5004l17.9994 0 0 -223.996 -17.9994 0c-0.335073,25.6632 -3.66862,44.496 -10.0006,56.4985 -6.33202,12.1657 -15.1685,21.1655 -26.5008,27.1667 -11.1648,6.00125 -27.8325,8.99972 -49.9989,8.99972l-120.502 0 0 -207.999c0,-33.503 2.00185,-55.6694 6.33632,-66.3359 3.16601,-8.16633 9.99635,-15.1642 20.4996,-20.9979 14.3308,-7.83556 29.1643,-11.835 44.8311,-11.835l24.0007 0 0 -17.9994 -284.168 0 0 17.9994 23.3348 0c27.3342,0 47.3312,7.9988 59.6688,24.0007 7.83126,10.3314 11.6631,35.5006 11.6631,75.1681l0 427.833c0,33.4987 -2.16509,55.6651 -6.33202,66.3316 -3.33355,8.16633 -10.0006,15.1685 -20.0013,21.0022 -14,7.83126 -28.9967,11.6674 -44.9986,11.6674l-23.3348 0 0 18.1627 492.669 0 6.33202 -145.499 -17.1661 0c-8.33387,30.8353 -18.3345,53.5 -29.4993,68.0027 -11.1691,14.4984 -25.0016,24.9973 -41.5018,31.4969 -16.5002,6.49956 -41.8326,9.83311 -76.3322,9.83311l-146.002 0z" />
         </glyph>
         <glyph id="glyph3549" horiz-adv-x="610" unicode="E">
            <path id="path3551" d="M209 625.998l0 -261.666 145.499 0c37.8332,0 63.0023,5.66617 75.6664,17.0028 17.0028,14.9967 26.3333,41.33 28.3352,79.1632l17.9994 0 0 -230.496 -17.9994 0c-4.50201,32.1627 -9.16726,52.8299 -13.665,61.9971 -5.83371,11.3323 -15.5036,20.3364 -28.8335,26.8359 -13.3342,6.49956 -33.8338,9.83311 -61.5031,9.83311l-145.499 0 0 -218.335c0,-29.3318 1.3317,-47.168 3.83186,-53.5 2.6677,-6.33202 7.16971,-11.3323 13.6693,-15.1685 6.49956,-3.66433 19.0004,-5.49864 37.1673,-5.49864l112.331 0c37.3349,0 64.6691,2.50016 81.5001,7.83556 16.9985,5.16356 33.1679,15.3317 48.8348,30.6635 20.1645,20.1688 40.8317,50.6691 61.9971,91.3332l19.503 0 -57.0011 -165.999 -510.334 0 0 17.9994 23.5024 0c15.4993,0 30.3327,3.83186 44.3328,11.3323 10.499,5.16786 17.4968,13.0034 21.333,23.3348 3.66433,10.499 5.49864,31.8319 5.49864,63.999l0 430.169c0,42.0001 -4.16694,67.8308 -12.6683,77.6639 -11.6631,12.9991 -31.1661,19.503 -58.496,19.503l-23.5024 0 0 18.1627 510.334 0 7.33295 -144.996 -19.1679 0c-6.83034,34.8304 -14.3308,58.6636 -22.6647,71.667 -8.33387,12.9991 -20.4996,22.9998 -36.8323,29.8301 -12.9991,4.83279 -36.0032,7.33295 -68.8361,7.33295l-181.665 0z" />
         </glyph>
         <glyph id="glyph3553" horiz-adv-x="722" unicode="D">
            <path id="path3555" d="M17.1661 0l0 17.9994 24.8341 0c28.0001,0 47.8338,8.99972 59.5013,26.9992 7.16541,10.6665 10.834,34.8347 10.834,72.1696l0 427.833c0,41.3343 -4.66954,67.165 -13.6693,77.5007 -12.664,14.3308 -31.6644,21.5005 -56.666,21.5005l-24.8341 0 0 18.1627 269.502 0c98.8337,0 174.165,-11.3323 225.831,-33.6663 51.5025,-22.4972 93,-59.9996 124.501,-112.331 31.3336,-52.4991 47.168,-113.001 47.168,-181.665 0,-92.1666 -28.0001,-169.169 -84.0003,-231.003 -62.8348,-68.9993 -158.666,-103.499 -287.166,-103.499l-295.835 0zm188.835 47.8338c41.33,-9.16726 75.9972,-13.6693 103.997,-13.6693 75.5031,0 138.166,26.5008 188.002,79.6701 49.8314,52.9974 74.833,124.999 74.833,215.83 0,91.3332 -25.0016,163.503 -74.833,216.169 -49.8357,52.8342 -113.667,79.1675 -191.834,79.1675 -29.3318,0 -62.6673,-4.66954 -100.165,-14.1676l0 -563z" />
         </glyph>
         <glyph id="glyph3557" horiz-adv-x="667" unicode="C">
            <path id="path3559" d="M602.002 677.166l15.1642 -224.997 -15.1642 0c-20.1688,67.3325 -49.0023,115.832 -86.3372,145.499 -37.4981,29.6669 -82.3335,44.5003 -134.833,44.5003 -43.9977,0 -83.6652,-11.1691 -119.166,-33.503 -35.5006,-22.3296 -63.3331,-57.8302 -83.6652,-106.665 -20.3364,-48.8348 -30.5002,-109.668 -30.5002,-182.168 0,-59.832 9.49803,-111.833 28.8335,-155.83 19.1636,-43.8344 47.9971,-77.5007 86.6637,-101.003 38.5033,-23.4981 82.501,-35.1655 132.002,-35.1655 43.0011,0 80.8342,9.16726 113.835,27.6693 32.8329,18.3302 68.9993,54.8317 108.332,109.5l15.1685 -9.66987c-33.1679,-58.9986 -72.0021,-102.167 -116.167,-129.497 -44.3328,-27.3342 -96.8318,-41.0035 -157.832,-41.0035 -109.668,0 -194.669,40.6684 -254.836,122.169 -44.8311,60.4979 -67.3325,131.834 -67.3325,213.833 0,66.0008 14.8334,126.834 44.3328,182.168 29.6669,55.3343 70.5028,98.1678 122.336,128.668 51.9965,30.3327 108.667,45.4969 170.166,45.4969 47.8338,0 95.1651,-11.6674 141.667,-34.998 13.665,-7.16971 23.4981,-10.834 29.3318,-10.834 8.66894,0 16.3327,3.16601 22.8322,9.33479 8.50141,8.66465 14.5027,20.9979 18.167,36.4972l17.0028 0z" />
         </glyph>
         <glyph id="glyph3561" horiz-adv-x="667" unicode="B">
            <path id="path3563" d="M461.834 337.835c45.9995,-9.66987 80.3316,-25.3367 103.168,-46.8372 31.4969,-29.9976 47.3312,-66.4991 47.3312,-109.831 0,-32.8329 -10.499,-64.334 -31.3336,-94.4992 -20.8347,-30.1695 -49.3331,-52.0008 -85.667,-65.8333 -36.334,-13.8368 -91.664,-20.8347 -166.166,-20.8347l-312.499 0 0 17.9994 24.8341 0c27.665,0 47.4988,8.83218 59.497,26.5008 7.50048,11.3323 11.3366,35.5006 11.3366,72.6679l0 427.833c0,40.9992 -4.66954,66.8342 -14.1676,77.5007 -12.6683,14.3308 -31.6687,21.5005 -56.666,21.5005l-24.8341 0 0 18.1627 285.998 0c53.5,0 96.3335,-3.9994 128.501,-11.8307 48.8348,-11.6674 86.1653,-32.3346 111.833,-62.169 25.6675,-29.8301 38.499,-63.999 38.499,-102.833 0,-33.1636 -9.99635,-62.8305 -30.1652,-89.1638 -20.1645,-26.1701 -49.9989,-45.5012 -89.4989,-58.3328zm-255.833 26.4966c12.1657,-2.33262 25.8307,-3.9994 41.33,-5.16356 15.5036,-1.16846 32.5021,-1.66677 51.0041,-1.66677 47.4988,0 83.3301,5.00032 107.163,15.3317 24.0007,10.1682 42.3352,25.9982 54.9992,47.168 12.6683,20.9979 19.0004,44.1652 19.0004,69.3301 0,38.6666 -15.8301,71.667 -47.3312,99.0012 -31.6687,27.3342 -77.6682,40.9992 -138.166,40.9992 -32.6696,0 -61.8339,-3.49679 -87.9997,-10.6665l0 -254.333zm0 -316.498c37.8332,-8.83218 75.1638,-13.1667 111.833,-13.1667 58.9986,0 103.834,13.3342 134.833,39.8307 30.8353,26.5008 46.3346,59.3337 46.3346,98.3354 0,25.6675 -7.00217,50.5015 -21.0022,74.1671 -14,23.8332 -36.8323,42.4984 -68.3334,56.1677 -31.4969,13.665 -70.6661,20.4996 -117.164,20.4996 -20.1688,0 -37.5024,-0.335073 -51.8332,-0.833387 -14.3351,-0.66585 -25.835,-1.83431 -34.6672,-3.50108l0 -271.499z" />
         </glyph>
         <glyph id="glyph3565" horiz-adv-x="722" unicode="A">
            <path id="path3567" d="M457.499 221.668l-256.331 0 -44.8354 -104.5c-11.1648,-25.6675 -16.6677,-44.8354 -16.6677,-57.6669 0,-10.0006 4.83279,-18.8328 14.3351,-26.5008 9.66557,-7.66802 30.3327,-12.6683 62.3322,-15.001l0 -17.9994 -208.501 0 0 17.9994c27.6693,5.00032 45.5012,11.3323 53.6675,19.1679 16.6677,15.4993 35.0023,47.3312 55.1668,95.1651l233 544.833 16.9985 0 230.5 -550.667c18.5021,-44.3328 35.3373,-72.9987 50.5015,-86.1653 15.1685,-13.1667 36.334,-20.6671 63.3331,-22.3339l0 -17.9994 -261.331 0 0 17.9994c26.3333,1.336 44.1652,5.83371 53.5,13.3342 9.3305,7.33295 14,16.5002 14,27.3342 0,14.3308 -6.6671,36.8323 -19.6662,67.8308l-40.0026 95.1694zm-13.665 36.1664l-112.335 267.5 -115.166 -267.5 227.502 0z" />
         </glyph>
         <glyph id="glyph3569" horiz-adv-x="920" unicode="@">
            <path id="path3571" d="M687.501 467.835l-57.1686 -194.836c-21.1655,-72.9987 -34.0013,-119.166 -38.499,-138.664 -4.66525,-19.6662 -6.83463,-35.1655 -6.83463,-47.0005 0,-10.3357 3.50108,-19.1679 10.499,-26.3333 7.00217,-7.16541 15.6668,-10.6665 26.1701,-10.6665 23.6656,0 52.164,11.8307 85.667,35.6681 33.3312,23.6656 61.8296,62.3322 85.667,115.665 23.6656,53.3325 35.6638,109.002 35.6638,167 0,55.6651 -13.4974,107 -40.3334,154.336 -26.8316,47.1637 -64.8324,83.3301 -113.835,108.667 -48.998,25.1649 -102.996,37.8332 -162.33,37.8332 -75.1681,0 -145.001,-20.0013 -209.502,-59.8363 -64.334,-39.9983 -115.334,-97.3302 -153,-172.167 -37.6657,-74.833 -56.3309,-152.664 -56.3309,-233.331 0,-75.0005 16.5002,-142.999 49.4963,-204.167 33.0004,-61.168 79.5025,-107.498 139.335,-138.832 59.9996,-31.5012 124.334,-47.168 193.5,-47.168 85.4995,0 163,22.8322 232.167,68.8318 69.1668,45.8363 122.499,113.001 160.332,201.168l28.3352 0c-29.3361,-89.1681 -82.501,-161.501 -159.667,-216.835 -77.1656,-55.33 -165.002,-82.9993 -263.668,-82.9993 -77.5007,0 -149.498,18.3345 -215.834,54.9992 -66.3316,36.5015 -117.997,88.5023 -154.834,155.667 -36.6647,67.3325 -55.1668,141.169 -55.1668,222.003 0,85.8303 20.1688,165.999 60.5022,240.497 40.5009,74.3347 96.9994,132.5 169.835,174.337 72.6636,41.8326 149.834,62.663 231.664,62.663 67.3325,0 128.165,-13.8325 182.336,-41.6651 54.1659,-27.8325 95.5001,-68.6685 123.831,-122.169 28.3352,-53.5 42.3352,-110.334 42.3352,-170.664 0,-59.5013 -13.1667,-118.5 -39.6675,-177 -26.5008,-58.3328 -60.3346,-100.999 -101.334,-127.667 -40.9992,-26.6684 -83.8327,-39.9983 -128.501,-39.9983 -24.6665,0 -43.3318,5.82941 -55.8326,17.4968 -12.5008,11.835 -18.8328,28.1676 -18.8328,49.3331 0,18.3345 2.99847,42.1677 8.83218,71.8345 -48.1646,-58.3328 -86.8312,-95.9985 -115.832,-113.332 -28.8335,-17.1661 -54.5009,-25.835 -76.6673,-25.835 -22.9998,0 -43.4994,10.3357 -61.4988,31.0029 -17.8362,20.6628 -26.8359,48.1646 -26.8359,82.8318 0,47.168 15.336,99.9979 46.1671,158.666 30.8353,58.5003 71.4995,106.167 122.336,142.999 37.4981,27.0035 70.9968,40.5009 100.5,40.5009 21.8313,0 39.9983,-5.49864 54.4966,-16.831 14.5027,-11.1691 24.3358,-28.0001 29.4993,-50.5015l16.1694 53.6675 76.6673 10.834zm-171.334 -20.0013c-24.499,0 -49.1655,-12.9991 -74.3347,-38.6666 -36.6647,-37.6657 -68.1659,-88.6655 -94.1641,-152.832 -19.1679,-46.8372 -28.8335,-84.6704 -28.8335,-113.336 0,-20.4996 5.83371,-37.1673 17.3336,-49.9989 11.4999,-12.8316 24.499,-19.3354 38.8298,-19.3354 18.8328,0 38.6666,7.16971 59.5013,21.5005 20.8347,14.3351 42.666,36.5015 65.4982,66.1684 22.8365,29.8344 39.3367,59.6645 49.8357,89.6664 18.167,51.6657 27.3342,93.8334 27.3342,126.499 0,21.5005 -6.00125,38.5033 -17.8362,51.1674 -11.8307,12.6683 -26.3333,19.1679 -43.1643,19.1679z" />
         </glyph>
         <glyph id="glyph3573" horiz-adv-x="499" unicode="_">
            <path id="path3575" d="M508.834 -215.834l-517.168 0 0 40.9992 517.168 0 0 -40.9992z" />
         </glyph>
         <glyph id="glyph3577" horiz-adv-x="469" unicode="^">
            <path id="path3579" d="M243.169 675.834l207.496 -350.169 -44.8311 0 -170.999 286.17 -170.836 -286.17 -45.9995 0 210.499 350.169 14.6702 0z" />
         </glyph>
         <glyph id="glyph3581" horiz-adv-x="277" unicode="\">
            <path id="path3583" d="M40.5009 694.332l239.332 -707.997 -39.1649 0 -239.169 707.997 39.0017 0z" />
         </glyph>
         <glyph id="glyph3585" horiz-adv-x="610" unicode="Z">
            <path id="path3587" d="M575.166 662.165l-434.998 -622.166 271.499 0c41.6651,0 73.6645,9.16726 95.8309,27.3342 22.3339,18.3345 42.1677,55.1668 59.3337,110.836l16.1694 -2.83523 -31.1661 -175.333 -539.167 0 0 17.9994 424.83 604.502 -211.831 0c-35.1655,0 -60.6654,-3.83616 -76.4998,-11.3366 -15.8344,-7.66372 -27.8325,-18.8328 -36.1664,-33.3312 -8.33387,-14.4984 -15.8344,-41.5018 -22.669,-81.165l-18.4978 0 13.665 165.496 489.666 0z" />
         </glyph>
         <glyph id="glyph3589" horiz-adv-x="722" unicode="Y">
            <path id="path3591" d="M476.5 662.165l230.999 0 0 -18.1627 -12.664 0c-8.50141,0 -20.8347,-3.66862 -37.1673,-11.1691 -16.1651,-7.50048 -30.9986,-18.167 -44.3328,-32.167 -13.3342,-14 -29.8344,-36.8323 -49.3331,-68.501l-159.667 -251.331 0 -166.166c0,-40.6684 4.49771,-66.0008 13.665,-76.169 12.3333,-13.665 31.8319,-20.4996 58.5003,-20.4996l21.5005 0 0 -17.9994 -281.165 0 0 17.9994 23.3305 0c28.0001,0 48.0014,8.50141 59.6688,25.4999 7.16541,10.3357 10.6665,34.1689 10.6665,71.1687l0 156.831 -181.67 277.333c-21.333,32.5021 -35.9989,52.8342 -43.6626,61.0005 -7.66802,8.16633 -23.5024,17.9994 -47.5031,29.3318 -6.49956,3.33355 -15.9976,4.83708 -28.3309,4.83708l0 18.1627 283.167 0 0 -18.1627 -14.6702 0c-15.3317,0 -29.3318,-3.50108 -42.1634,-10.6708 -13.0034,-7.16541 -19.3354,-17.9994 -19.3354,-32.3303 0,-11.6674 9.83311,-32.8329 29.8344,-63.3331l138.166 -213.502 129.832 204.167c19.503,30.6678 29.3361,53.3325 29.3361,68.3334 0,9.16726 -2.33692,17.3336 -7.16971,24.499 -4.66525,7.16971 -11.4999,12.6683 -20.1645,16.8353 -8.83218,3.9994 -21.9988,6.00125 -39.6675,6.00125l0 18.1627z" />
         </glyph>
         <glyph id="glyph3593" horiz-adv-x="722" unicode="X">
            <path id="path3595" d="M408.166 366.665l142.166 -211.831c39.3367,-58.6679 68.501,-95.6677 87.6689,-111.167 19.0004,-15.4993 43.1643,-24.0007 72.5004,-25.6675l0 -17.9994 -284.168 0 0 17.9994c18.8328,0.335073 32.8329,2.33262 42.0001,6.00125 6.83463,2.83094 12.3333,7.33295 16.8353,13.3342 4.33018,5.99695 6.49956,12.1657 6.49956,18.3302 0,7.50048 -1.50353,15.001 -4.33447,22.5014 -2.33262,5.49864 -11.3323,19.8338 -26.8359,43.0011l-112.331 169.831 -138.669 -177.666c-14.6659,-19.0004 -23.4981,-31.4969 -26.3333,-37.8332 -2.99847,-6.33202 -4.49771,-12.9991 -4.49771,-19.8338 0,-10.499 4.49771,-19.0004 13.1667,-25.8307 8.83218,-6.83463 25.6675,-10.834 50.334,-11.835l0 -17.9994 -234.835 0 0 17.9994c16.6677,1.66677 30.8353,5.16786 43.0011,10.3357 20.1645,8.49711 39.3324,19.8295 57.4994,34.1646 18.3345,14.3351 39.1649,36.334 62.4997,66.0008l156.333 197.165 -130.335 191c-35.4963,51.6657 -65.6657,85.667 -90.3323,101.669 -24.8341,16.1651 -53.3325,24.6665 -85.4995,25.6675l0 18.1627 306.167 0 0 -18.1627c-25.9982,-1.00092 -43.8344,-5.16786 -53.5,-12.6683 -9.49803,-7.50048 -14.3308,-15.8344 -14.3308,-24.8341 0,-12.1657 7.83126,-29.6669 23.3305,-52.8342l101.669 -151.831 117.667 149c13.665,17.4968 21.9988,29.4993 25.1649,35.9989 2.99847,6.6671 4.66525,13.3342 4.66525,20.1645 0,6.83463 -1.99755,12.8359 -5.99695,18.0037 -4.83279,6.83034 -11.0016,11.6631 -18.5021,14.3308 -7.50048,2.83523 -22.9998,4.33447 -46.3346,4.66954l0 18.1627 234.835 0 0 -18.1627c-18.4978,-1.00092 -33.6663,-3.83616 -45.5012,-8.66894 -17.4968,-7.50048 -33.6663,-17.6644 -48.3322,-30.3327 -14.6659,-12.6683 -35.333,-36.1664 -61.9971,-70.3353l-131.336 -168.001z" />
         </glyph>
         <glyph id="glyph3597" horiz-adv-x="943" unicode="W">
            <path id="path3599" d="M936.001 662.165l0 -18.1627c-17.1661,0 -31.1661,-3.00277 -42.0001,-9.16726 -10.6665,-6.33632 -21.0022,-17.8362 -30.6678,-34.6672 -6.49956,-11.4999 -16.8353,-38.6666 -30.831,-81.6676l-184.501 -533.668 -19.503 0 -150.998 423.335 -149.834 -423.335 -17.6687 0 -196.666 549.834c-14.6659,41.0035 -24.0007,65.335 -27.8325,72.8354 -6.49956,12.3333 -15.4993,21.5005 -26.6641,27.4975 -11.1691,6.00125 -26.5008,9.00402 -45.6688,9.00402l0 18.1627 245.166 0 0 -18.1627 -11.6674 0c-17.3336,0 -30.5002,-3.83616 -39.6675,-11.6674 -8.99972,-7.83556 -13.665,-17.3336 -13.665,-28.3352 0,-11.3323 7.16541,-37.6657 21.5005,-78.6649l130.335 -371.502 109.831 315.832 -19.4987 55.6694 -15.4993 44.5003c-6.83463,16.3327 -14.5027,30.6635 -22.9998,42.9968 -4.33447,6.16878 -9.50233,11.3366 -15.6668,15.6668 -8.16633,5.83371 -16.3327,10.0006 -24.3358,12.6683 -6.33202,1.83431 -15.9976,2.83523 -29.3318,2.83523l0 18.1627 257.834 0 0 -18.1627 -17.6687 0c-18.167,0 -31.5012,-3.83616 -39.9983,-11.6674 -8.50141,-7.83556 -12.6683,-18.3345 -12.6683,-31.6687 0,-16.6677 7.33295,-45.6645 21.9988,-86.9987l126.834 -359.834 126 364.667c14.3351,40.5009 21.5005,68.3334 21.5005,84.0003 0,7.50048 -2.33262,14.4984 -6.99787,20.9979 -4.83708,6.50386 -10.6708,11.1691 -17.8362,13.6693 -12.3333,4.66525 -28.4984,6.83463 -48.3322,6.83463l0 18.1627 197.667 0z" />
         </glyph>
         <glyph id="glyph3601" horiz-adv-x="722" unicode="V">
            <path id="path3603" d="M709.998 662.165l0 -18.1627c-23.4981,-4.16694 -41.1667,-11.6674 -53.3325,-22.3339 -17.1661,-16.0019 -32.4978,-40.5009 -45.832,-73.3338l-230.999 -563.503 -18.0037 0 -247.997 570.836c-12.8359,29.3318 -21.6681,47.168 -27.0035,53.6675 -7.9988,10.1639 -17.9994,17.9994 -29.9976,23.6656 -11.835,5.83371 -27.8325,9.33479 -48.0014,11.0016l0 18.1627 270.503 0 0 -18.1627c-30.6678,-2.83523 -50.5015,-8.17063 -59.6688,-15.5036 -8.99972,-7.50048 -13.665,-17.1661 -13.665,-28.8335 0,-16.3327 7.50048,-41.6651 22.4972,-76.1647l168.503 -388.165 156.166 383.165c15.3317,37.8332 22.9998,63.999 22.9998,78.6649 0,9.50233 -4.66525,18.5021 -14.1676,27.1667 -9.49803,8.50141 -25.3324,14.6702 -47.8338,18.167 -1.66677,0.335073 -4.33018,0.833387 -8.33387,1.50353l0 18.1627 204.167 0z" />
         </glyph>
         <glyph id="glyph3605" horiz-adv-x="722" unicode="U">
            <path id="path3607" d="M476.998 644.002l0 18.1627 234.504 0 0 -18.1627 -25.0016 0c-26.0025,0 -45.9995,-10.834 -59.9996,-32.6696 -6.83463,-10.1639 -10.3357,-33.4987 -10.3357,-70.331l0 -268.501c0,-66.4991 -6.49956,-118.002 -19.6662,-154.499 -13.1667,-36.669 -39.1649,-68.1702 -77.6639,-94.336 -38.6666,-26.1658 -91.17,-39.3324 -157.502,-39.3324 -72.3328,0 -127.169,12.5008 -164.499,37.6657 -37.5024,25.0016 -63.999,58.6679 -79.6658,101.003 -10.3357,28.9967 -15.6668,83.3301 -15.6668,163.163l0 258.835c0,40.6641 -5.50293,67.3325 -16.8353,80.0009 -11.1648,12.664 -29.3318,19.0004 -54.3334,19.0004l-24.9973 0 0 18.1627 286.165 0 0 -18.1627 -25.3324 0c-27.3342,0 -47.0005,-8.50141 -58.6679,-25.835 -8.16633,-11.6674 -12.1657,-36.1664 -12.1657,-73.1662l0 -288.666c0,-25.6675 2.33262,-55.1668 6.99787,-88.3347 4.83279,-33.1679 13.3342,-59.1662 25.6675,-77.6682 12.3333,-18.4978 30.1652,-33.8338 53.5,-45.832 23.3348,-12.1657 51.8332,-18.167 85.667,-18.167 43.3318,0 81.9984,9.49803 116.167,28.3352 34.1646,18.8328 57.6669,42.9968 70.1635,72.4961 12.5008,29.5036 18.8371,79.335 18.8371,149.67l0 268.166c0,41.3343 -4.66954,67.165 -13.6693,77.5007 -12.8316,14.3308 -31.6644,21.5005 -56.666,21.5005l-25.0016 0z" />
         </glyph>
         <glyph id="glyph3609" horiz-adv-x="610" unicode="T">
            <path id="path3611" d="M578.667 662.165l7.33295 -155.332 -18.6653 0c-3.50108,27.3342 -8.33387,46.8329 -14.6659,58.6679 -10.0006,18.8328 -23.5024,32.6653 -40.1701,41.6651 -16.831,8.99972 -38.8341,13.5017 -66.1641,13.5017l-93.3351 0 0 -505.999c0,-40.6684 4.50201,-66.0008 13.1667,-76.169 12.3333,-13.665 31.5012,-20.4996 57.1686,-20.4996l22.9998 0 0 -17.9994 -280.834 0 0 17.9994 23.4981 0c28.0001,0 47.8338,8.50141 59.5013,25.4999 7.16541,10.3357 10.834,34.1689 10.834,71.1687l0 505.999 -79.6658 0c-30.8353,0 -52.8342,-2.33262 -65.8333,-6.83463 -17.0028,-6.16449 -31.5012,-18.167 -43.4994,-35.6638 -12.0025,-17.6687 -19.1679,-41.3343 -21.5005,-71.3362l-18.5021 0 7.83556 155.332 540.499 0z" />
         </glyph>
         <glyph id="glyph3613" horiz-adv-x="556" unicode="S">
            <path id="path3615" d="M458.5 677.166l0 -229.001 -17.9994 0c-6.00125,44.002 -16.5002,78.9999 -31.5012,105.002 -15.1685,26.1658 -36.8323,46.8329 -64.8324,62.0014 -28.0001,15.3317 -56.8336,22.9998 -86.8355,22.9998 -33.8338,0 -61.8339,-10.3357 -84.0003,-31.0029 -22.1664,-20.6671 -33.1636,-44.1652 -33.1636,-70.4985 0,-20.1688 6.99787,-38.6666 20.9979,-55.1668 20.1688,-24.499 68.1659,-57.0011 144,-97.6652 61.8339,-33.1679 104.169,-58.6679 126.666,-76.4998 22.669,-17.6687 40.1701,-38.6666 52.3358,-62.6673 12.1657,-24.1682 18.3302,-49.3331 18.3302,-75.6664 0,-50.1665 -19.4987,-93.3351 -58.3328,-129.669 -38.9974,-36.334 -89.0006,-54.5009 -150.164,-54.5009 -19.3354,0 -37.3349,1.50353 -54.3334,4.50201 -10.0006,1.49924 -31.0029,7.50048 -62.6673,17.6644 -31.6687,10.3357 -51.8332,15.5036 -60.3346,15.5036 -8.16633,0 -14.4984,-2.50016 -19.3311,-7.33295 -4.66954,-4.83708 -8.16633,-15.001 -10.5033,-30.337l-17.9994 0 0 227.003 17.9994 0c8.50141,-47.5031 20.0013,-83.0036 34.3364,-106.669 14.3308,-23.4981 36.1664,-43.1643 65.6657,-58.8311 29.3318,-15.4993 61.6663,-23.3348 96.8318,-23.3348 40.6684,0 72.8354,10.6665 96.5011,32.167 23.5024,21.5005 35.333,46.8329 35.333,76.1647 0,16.337 -4.49771,32.6696 -13.3342,49.3331 -8.99972,16.6677 -22.9998,32.0038 -41.8326,46.3346 -12.664,9.83311 -47.3312,30.5002 -103.997,62.3322 -56.6703,31.6687 -96.8361,57.0011 -120.837,75.8339 -23.9964,19.0004 -42.0001,39.835 -54.4966,62.4997 -12.3333,22.8365 -18.5021,48.0014 -18.5021,75.3356 0,47.4988 18.167,88.3347 54.6685,122.667 36.4972,34.3321 82.8318,51.4982 139.167,51.4982 35.1655,0 72.4961,-8.49711 111.833,-25.8307 18.167,-8.16633 31.1661,-12.17 38.499,-12.17 8.50141,0 15.4993,2.50016 20.8347,7.50048 5.3311,5.16786 9.66557,15.336 12.9991,30.5002l17.9994 0z" />
         </glyph>
         <glyph id="glyph3617" horiz-adv-x="667" unicode="R">
            <path id="path3619" d="M675.834 0l-176.833 0 -224.168 309.5c-16.5002,-0.498314 -29.9976,-0.833387 -40.5009,-0.833387 -4.16694,0 -8.66465,0 -13.665,0.167537 -4.83279,0.167537 -9.83311,0.330777 -15.1685,0.66585l0 -192.332c0,-41.6694 4.66954,-67.5001 13.6693,-77.6682 12.5008,-14.3351 30.9986,-21.5005 55.6651,-21.5005l25.9982 0 0 -17.9994 -283.665 0 0 17.9994 24.8341 0c28.0001,0 48.0014,9.16726 59.9996,27.3342 6.83463,10.1682 10.3357,34.1646 10.3357,71.8345l0 427.833c0,41.6651 -4.66954,67.5001 -13.6693,77.5007 -12.664,14.3308 -31.6644,21.5005 -56.666,21.5005l-24.8341 0 0 18.1627 241.167 0c70.3353,0 122.169,-5.16356 155.5,-15.4993 33.3355,-10.1639 61.6663,-28.9967 85.0012,-56.4985 23.1673,-27.665 34.8347,-60.3346 34.8347,-98.4986 0,-40.6684 -13.1667,-76.0015 -39.835,-106.003 -26.5008,-29.8301 -67.5001,-50.9998 -123.165,-63.3331l136.667 -189.999c31.1661,-43.6669 58.1653,-72.6636 80.4992,-86.9987 22.4972,-14.1676 51.8332,-23.3348 87.9997,-27.3342l0 -17.9994zm-470.335 340.331c6.33632,0 11.6674,0 16.1694,-0.163241 4.49771,-0.167537 8.33387,-0.335073 11.1648,-0.335073 63.1656,0 110.832,13.665 142.836,40.9992 32.1627,27.3342 48.1646,62.169 48.1646,104.5 0,41.3343 -12.9991,75.0005 -38.8341,100.836 -25.8307,25.8307 -60.1671,38.8341 -102.833,38.8341 -18.8328,0 -44.3328,-3.17031 -76.6673,-9.33479l0 -275.336z" />
         </glyph>
         <glyph id="glyph3621" horiz-adv-x="722" unicode="Q">
            <path id="path3623" d="M440.501 -7.33295c33.1636,-57.3319 68.9993,-99.4995 107.666,-126.499 38.499,-27.0035 82.3335,-42.5027 131.499,-46.3346l0 -15.6668c-44.8311,1.66677 -92.8324,10.6665 -144,27.1667 -51.1674,16.3327 -99.4995,39.1649 -145.332,68.3334 -45.6688,29.1643 -85.1687,60.1671 -118.332,93 -46.8372,18.8328 -84.0003,38.8341 -111.334,59.9996 -39.6675,31.6687 -70.5028,70.4985 -92.5017,116.498 -21.9988,46.1671 -33.0004,100.5 -33.0004,163.335 0,99.0012 31.9995,181.167 96.166,246.665 64.1665,65.335 141.835,98.0003 233,98.0003 86.5004,0 161.501,-32.6653 224.834,-98.3311 63.3331,-65.5025 95.0018,-148.334 95.0018,-248.336 0,-80.9975 -22.669,-152.166 -67.6676,-213.33 -45.1661,-61.168 -103.834,-102.67 -175.999,-124.501zm-82.1659 647c-59.1662,0 -106.837,-21.1655 -143.003,-63.5007 -45.4969,-53.0017 -68.3334,-134.334 -68.3334,-243.667 0,-107 23.1673,-189.669 69.3344,-247.499 35.8356,-44.6678 83.1669,-67.0017 142.002,-67.0017 61.3313,0 110.497,22.3339 147.999,67.0017 43.9977,52.6666 66.0008,130.498 66.0008,233.331 0,79.1675 -12.17,145.667 -36.1664,199.669 -18.6696,41.6651 -43.1686,72.3328 -74.0039,92.1666 -30.831,19.6662 -65.3307,29.4993 -103.83,29.4993z" />
         </glyph>
         <glyph id="glyph3625" horiz-adv-x="556" unicode="P">
            <path id="path3627" d="M205 309.998l0 -192.83c0,-41.6694 4.66525,-67.5001 13.8325,-77.6682 12.3333,-14.3351 30.9986,-21.5005 56.0002,-21.5005l25.4999 0 0 -17.9994 -283.665 0 0 17.9994 24.8341 0c28.0001,0 47.9971,9.16726 59.9996,27.3342 6.49956,10.1682 9.83311,34.1646 9.83311,71.8345l0 427.833c0,41.6651 -4.33447,67.5001 -13.1667,77.5007 -12.6683,14.3308 -31.6687,21.5005 -56.666,21.5005l-24.8341 0 0 18.1627 242.666 0c59.1662,0 105.832,-6.16449 140,-18.3302 34.3321,-12.1657 62.998,-32.8329 86.5004,-61.8339 23.4981,-29.001 35.1655,-63.3331 35.1655,-103.001 0,-53.9983 -17.8319,-98.0003 -53.5,-131.834 -35.6681,-33.8338 -86.0021,-50.8323 -151.165,-50.8323 -15.8344,0 -33.1679,1.16846 -51.67,3.50108 -18.4978,2.33262 -38.499,5.66617 -59.6645,10.1639zm0 27.8368c17.3336,-3.17031 32.6653,-5.67047 45.9995,-7.33724 13.3342,-1.49924 24.6665,-2.33262 34.1689,-2.33262 33.8295,0 62.998,12.9991 87.6646,39.3324 24.499,26.1701 36.8323,60.0039 36.8323,101.669 0,28.6659 -5.83371,55.3343 -17.4968,79.8333 -11.835,24.6665 -28.3352,43.0011 -49.8357,55.1668 -21.5005,12.3333 -45.9995,18.3345 -73.3338,18.3345 -16.5002,0 -37.8332,-3.00277 -63.999,-9.16726l0 -275.499z" />
         </glyph>
         <glyph id="glyph3629" horiz-adv-x="499" unicode="o">
            <path id="path3631" d="M249.999 460.498c67.6676,0 122.001,-25.8307 163.168,-77.1656 34.8347,-43.9977 52.1683,-94.4992 52.1683,-151.333 0,-40.1658 -9.66987,-80.6667 -28.8335,-121.666 -19.1679,-40.9992 -45.6688,-72.0021 -79.335,-92.8324 -33.6663,-20.8347 -71.1644,-31.1661 -112.499,-31.1661 -67.5001,0 -121,26.8316 -160.668,80.4992 -33.4987,45.3337 -50.334,96.166 -50.334,152.334 0,41.1667 10.1682,81.8309 30.5002,122.332 20.3321,40.5009 47.168,70.4985 80.3316,89.834 33.1679,19.4987 68.3334,29.1643 105.501,29.1643zm-15.1642 -31.8319c-17.1661,0 -34.4996,-5.00032 -52.0008,-15.3317 -17.3336,-10.3357 -31.5012,-28.1676 -42.1677,-54.0026 -10.834,-25.6632 -16.1651,-58.6636 -16.1651,-98.9969 0,-65.1674 12.9991,-121.335 38.8341,-168.503 25.8307,-47.1637 59.9996,-70.8336 102.33,-70.8336 31.5012,0 57.4994,13.0034 78.1665,39.0017 20.4996,26.1658 30.6678,70.8336 30.6678,134.334 0,79.4982 -16.9985,141.998 -51.3349,187.499 -22.9998,31.3336 -52.4991,46.8329 -88.3304,46.8329z" />
         </glyph>
         <glyph id="glyph3633" horiz-adv-x="499" unicode="n">
            <path id="path3635" d="M161.668 365.668c52.3316,63.1656 102.33,94.83 149.834,94.83 24.499,0 45.4969,-6.16449 62.998,-18.3302 17.6687,-12.1657 31.6687,-32.3346 42.0001,-60.3346 7.16541,-19.4987 10.6665,-49.5006 10.6665,-89.834l0 -191c0,-28.1633 2.33262,-47.4988 6.99787,-57.4994 3.50108,-8.16633 9.33479,-14.4984 17.3336,-19.1679 7.83556,-4.49771 22.669,-6.83034 44.1695,-6.83034l0 -17.5011 -221.333 0 0 17.5011 9.3305 0c20.8347,0 35.5006,3.33355 43.6669,9.66557 8.33387,6.33202 14.1676,15.6668 17.3336,28.0001 1.336,4.83279 2.00185,20.1645 2.00185,45.832l0 183.169c0,40.6641 -5.3354,70.1635 -15.8344,88.6655 -10.6665,18.3345 -28.4984,27.5018 -53.5,27.5018 -38.6666,0 -77.3332,-21.1697 -115.665,-63.5007l0 -235.836c0,-30.1652 1.66677,-48.8305 5.3311,-56.0002 4.50201,-9.49803 10.834,-16.5002 18.8328,-20.8304 7.9988,-4.33447 24.1682,-6.6671 48.4997,-6.6671l0 -17.5011 -221.165 0 0 17.5011 9.83311 0c22.669,0 38.1683,5.83371 46.1671,17.3336 7.83126,11.6674 11.835,33.6663 11.835,66.1641l0 166.166c0,53.6675 -1.16846,86.3329 -3.66862,98.0003 -2.33262,11.835 -6.16449,19.8338 -11.1648,24.0007 -5.00032,4.16694 -11.835,6.33202 -20.3364,6.33202 -8.99972,0 -19.997,-2.49587 -32.6653,-7.33295l-7.33295 17.6687 134.833 54.6642 21.0022 0 0 -94.83z" />
         </glyph>
         <glyph id="glyph3637" horiz-adv-x="777" unicode="m">
            <path id="path3639" d="M164.001 365.165c32.6653,32.6696 51.8332,51.3349 57.6669,56.1677 14.6659,12.5008 30.5002,21.9988 47.3312,28.8335 17.0028,6.83463 33.6663,10.3314 50.334,10.3314 28.0001,0 52.1683,-8.16633 72.3328,-24.499 20.1688,-16.1651 33.6663,-39.8307 40.5009,-70.8336 33.4987,39.1692 61.8339,64.8367 85.0012,77.0024 22.9998,12.1657 46.8329,18.3302 71.1644,18.3302 23.8332,0 44.8354,-6.16449 63.3331,-18.3302 18.3345,-12.1657 32.8329,-32.167 43.6669,-59.8363 7.16541,-18.8328 10.6665,-48.4997 10.6665,-88.833l0 -192.5c0,-28.0001 2.16938,-47.1637 6.33632,-57.4994 3.32925,-7.16541 9.3305,-13.3342 18.1627,-18.3345 8.83648,-5.00032 22.9998,-7.66372 43.0011,-7.66372l0 -17.5011 -220.83 0 0 17.5011 9.3305 0c19.1679,0 34.1689,3.83186 44.9986,11.3323 7.50048,5.16786 12.8359,13.5017 16.0019,24.8341 1.3317,5.49864 2.00185,21.333 2.00185,47.3312l0 192.5c0,36.5015 -4.33447,62.169 -13.1667,77.1699 -12.6683,20.8304 -33.0004,31.1661 -61.0005,31.1661 -17.3336,0 -34.6672,-4.33447 -52.0008,-12.8359 -17.5011,-8.66465 -38.499,-24.6665 -63.3331,-48.1646l-1.00092 -5.3354 1.00092 -20.9979 0 -213.502c0,-30.5002 1.83431,-49.5006 5.16786,-56.9968 3.49679,-7.50048 9.83311,-13.8368 19.3311,-18.8371 9.33479,-5.00032 25.4999,-7.66372 48.3322,-7.66372l0 -17.5011 -226.166 0 0 17.5011c24.8341,0 41.8326,2.99847 51.1674,8.83218 9.16726,5.83371 15.6668,14.6659 19.1679,26.3333 1.66677,5.66617 2.50016,21.6681 2.50016,48.3322l0 192.5c0,36.5015 -5.3354,62.6673 -16.1694,78.5016 -14.3308,20.8347 -34.3321,31.3336 -59.9996,31.3336 -17.6644,0 -34.998,-4.66525 -52.3316,-14.1676 -26.9992,-14.3308 -47.8338,-30.5002 -62.4997,-48.3322l0 -239.835c0,-29.1643 2.16509,-48.3322 6.16449,-56.9968 3.9994,-8.83648 10.1682,-15.5036 17.9994,-19.8338 8.00309,-4.33447 24.1682,-6.6671 48.6672,-6.6671l0 -17.5011 -221.165 0 0 17.5011c20.4996,0 34.8347,2.33262 43.0011,6.6671 7.9988,4.33018 14.3308,11.3323 18.4978,20.9979 4.16694,9.66557 6.33632,28.1676 6.33632,55.8326l0 171.003c0,49.1655 -1.50353,80.83 -4.33447,95.1651 -2.33262,10.834 -6.00125,18.167 -10.834,22.1664 -4.83279,4.16694 -11.4999,6.16449 -20.0013,6.16449 -9.16726,0 -19.997,-2.49587 -32.6653,-7.33295l-7.33295 17.6687 134.665 54.6642 21.0022 0 0 -95.3326z" />
         </glyph>
         <glyph id="glyph3641" horiz-adv-x="277" unicode="l">
            <path id="path3643" d="M184.999 694.332l0 -593.333c0,-28.0001 2.16938,-46.4978 6.16878,-55.6651 3.9994,-8.99972 10.3314,-16.0019 18.8328,-20.6671 8.50141,-4.66525 24.1639,-7.16541 47.3312,-7.16541l0 -17.5011 -219.164 0 0 17.5011c20.4996,0 34.4996,2.16509 41.8326,6.49956 7.50048,4.16694 13.4974,11.1648 17.6644,20.9979 4.16694,9.66987 6.33632,28.3352 6.33632,56.0002l0 406.336c0,50.4972 -1.16846,81.5001 -3.33355,93 -2.33262,11.4999 -6.00125,19.4987 -11.0016,23.6656 -5.16786,4.33447 -11.4999,6.33202 -19.3311,6.33202 -8.50141,0 -19.1679,-2.50016 -32.167,-7.83126l-8.33387 17.1661 133.333 54.6642 21.8313 0z" />
         </glyph>
         <glyph id="glyph3645" horiz-adv-x="499" unicode="k">
            <path id="path3647" d="M163.499 694.332l0 -445.334 113.835 104.002c24.1682,22.1664 38.1683,36.1664 42.0001,42.0001 2.6677,3.9994 3.83186,7.83556 3.83186,11.6674 0,6.6671 -2.6634,12.1657 -7.9988,16.9985 -5.3311,4.66954 -14.1676,7.33295 -26.6684,8.00309l0 15.6625 194.334 0 0 -15.6625c-26.6641,-0.670146 -48.8305,-4.66954 -66.4991,-12.17 -17.8319,-7.50048 -37.3306,-20.8304 -58.5003,-40.1658l-114.664 -105.832 114.664 -145.001c31.9995,-40.1658 53.5,-65.5025 64.5016,-76.3322 15.6668,-15.1685 29.3318,-25.1691 40.9992,-29.6669 8.16633,-3.33355 22.3339,-5.00032 42.4984,-5.00032l0 -17.5011 -217.334 0 0 17.5011c12.5008,0.330777 20.8347,2.33262 25.1691,5.66617 4.49771,3.50108 6.6671,8.16633 6.6671,14.4984 0,7.50048 -6.49956,19.503 -19.503,35.9989l-137.333 175.333 0 -148.33c0,-29.001 2.16938,-48.1689 6.16878,-57.1686 3.9994,-9.16726 9.83311,-15.6668 17.3336,-19.4987 7.50048,-3.9994 23.8332,-6.16878 48.8305,-6.49956l0 -17.5011 -227.497 0 0 17.5011c22.8322,0 39.8307,2.83094 51.1674,8.33387 6.83034,3.66433 12.1657,9.16296 15.6668,16.6634 4.83279,10.6665 7.33295,29.3361 7.33295,55.6694l0 407.165c0,51.8332 -1.16846,83.5019 -3.33355,95.0018 -2.33262,11.4999 -6.16878,19.4987 -11.3323,23.9964 -5.16786,4.33447 -12.0025,6.50386 -20.5039,6.50386 -6.83034,0 -16.9985,-2.6677 -30.6635,-8.33387l-8.33387 17.1661 132.831 54.6642 22.3339 0z" />
         </glyph>
         <glyph id="glyph3649" horiz-adv-x="277" unicode="j">
            <path id="path3651" d="M144.498 694.834c14,0 25.835,-4.83279 35.6681,-14.6659 9.83311,-9.83311 14.6659,-21.6681 14.6659,-35.6681 0,-13.665 -4.83279,-25.3324 -14.6659,-35.1655 -9.83311,-9.66987 -21.6681,-14.6702 -35.6681,-14.6702 -13.665,0 -25.3324,5.00032 -35.1655,14.6702 -9.66557,9.83311 -14.6659,21.5005 -14.6659,35.1655 0,14 5.00032,25.835 14.6659,35.6681 9.83311,9.83311 21.5005,14.6659 35.1655,14.6659zm42.0001 -234.336l0 -450.166c0,-76.4998 -16.3327,-133.333 -48.8305,-170.496 -32.5021,-37.1673 -74.833,-55.6694 -127.001,-55.6694 -29.4993,0 -51.4982,5.3354 -65.8333,16.1694 -14.3351,10.6665 -21.5005,21.8313 -21.5005,33.1636 0,11.3366 3.9994,21.1697 12.0025,29.3361 7.9988,8.16633 17.3336,12.1657 28.0001,12.1657 8.49711,0 17.1661,-2.16509 25.9982,-6.33202 5.49864,-2.33692 16.1651,-10.5033 31.8319,-24.6665 15.8344,-14.1676 29.1685,-21.1697 39.835,-21.1697 7.83126,0 15.4993,3.00277 22.9998,8.99972 7.50048,6.00125 12.9991,16.0019 16.6677,30.1695 3.49679,14.1633 5.3311,44.8311 5.3311,92.1666l0 318.332c0,49.1655 -1.49924,80.6667 -4.49771,94.6668 -2.16938,10.834 -5.83371,18.167 -10.6665,22.1664 -4.83279,4.16694 -11.4999,6.16449 -20.0013,6.16449 -9.16726,0 -20.1688,-2.49587 -33.1679,-7.33295l-6.83034 17.6687 134.665 54.6642 20.9979 0z" />
         </glyph>
         <glyph id="glyph3653" horiz-adv-x="277" unicode="i">
            <path id="path3655" d="M145.001 694.332c13.665,0 25.3324,-4.83279 34.998,-14.3308 9.50233,-9.66557 14.3351,-21.333 14.3351,-35.0023 0,-13.665 -4.83279,-25.3324 -14.3351,-35.1655 -9.66557,-9.66557 -21.333,-14.6659 -34.998,-14.6659 -13.6693,0 -25.3324,5.00032 -35.1655,14.6659 -9.66987,9.83311 -14.6702,21.5005 -14.6702,35.1655 0,13.6693 4.83279,25.3367 14.5027,35.0023 9.49803,9.49803 21.333,14.3308 35.333,14.3308zm40.5009 -233.834l0 -359.499c0,-28.0001 1.99755,-46.4978 6.16449,-55.8326 3.9994,-9.33479 10.0006,-16.1651 17.9994,-20.8347 8.00309,-4.49771 22.669,-6.83034 43.8344,-6.83034l0 -17.5011 -217.334 0 0 17.5011c21.8356,0 36.5015,2.16509 43.8344,6.49956 7.50048,4.16694 13.4974,11.1648 17.8319,20.9979 4.50201,9.66987 6.6671,28.3352 6.6671,56.0002l0 172.503c0,48.4997 -1.49924,79.8333 -4.33447,94.1641 -2.33262,10.5033 -5.99695,17.6687 -10.834,21.6681 -4.83279,4.16694 -11.4999,6.16449 -19.997,6.16449 -9.16726,0 -20.1688,-2.49587 -33.1679,-7.33295l-6.83463 17.6687 134.669 54.6642 21.5005 0z" />
         </glyph>
         <glyph id="glyph3657" horiz-adv-x="499" unicode="h">
            <path id="path3659" d="M162.665 694.332l0 -327.165c36.0032,39.6675 64.6691,65.1674 85.8346,76.4998 21.1655,11.1648 42.3352,16.831 63.5007,16.831 25.3324,0 47.168,-6.99787 65.4982,-20.9979 18.167,-14 31.6687,-35.9989 40.5009,-66.0008 6.16878,-20.8304 9.16726,-58.8311 9.16726,-114.165l0 -158.335c0,-28.1633 2.33262,-47.6663 6.99787,-57.9977 3.17031,-7.83556 8.66894,-14 16.5002,-18.6696 7.83556,-4.49771 22.1707,-6.83034 43.0011,-6.83034l0 -17.5011 -219.666 0 0 17.5011 10.1682 0c20.8304,0 35.333,3.33355 43.4994,9.66557 8.16633,6.33202 13.8325,15.6668 16.9985,28.0001 1.00092,5.16786 1.49924,20.4996 1.49924,45.832l0 158.335c0,48.8348 -2.50016,80.8342 -7.49619,96.166 -5.16786,15.3317 -13.1667,26.6684 -24.1682,34.3321 -11.1691,7.66802 -24.499,11.4999 -40.1658,11.4999 -15.8344,0 -32.5021,-4.16694 -49.6681,-12.664 -17.3336,-8.50141 -38.0007,-25.4999 -62.0014,-51.3349l0 -236.334c0,-30.5002 1.66677,-49.5006 5.00032,-56.9968 3.50108,-7.50048 9.83311,-13.8368 19.1679,-18.8371 9.16726,-5.00032 25.1649,-7.66372 48.0014,-7.66372l0 -17.5011 -221.668 0 0 17.5011c19.8338,0 35.5006,3.16601 46.8329,9.3305 6.49956,3.33355 11.835,9.50233 15.6668,18.5021 3.9994,9.16726 5.83371,27.665 5.83371,55.6651l0 404.833c0,51.1674 -1.16846,82.501 -3.66862,94.336 -2.33262,11.6674 -6.16449,19.6662 -11.1648,23.8332 -5.00032,4.33447 -11.835,6.33202 -20.3321,6.33202 -6.83463,0 -17.8362,-2.50016 -33.1679,-7.83126l-6.83463 17.1661 133.836 54.6642 22.4972 0z" />
         </glyph>
         <glyph id="glyph3661" horiz-adv-x="499" unicode="g">
            <path id="path3663" d="M150.834 163.168c-27.3342,13.3342 -48.3364,31.8319 -63.0023,55.8326 -14.6659,24.0007 -21.8313,50.334 -21.8313,79.335 0,44.3328 16.6677,82.3292 49.9989,114.333 33.3355,31.8319 76.0015,47.8295 128.165,47.8295 42.666,0 79.5025,-10.499 110.836,-31.3293l94.6668 0c14,0 22.1664,-0.335073 24.499,-1.16846 2.16509,-0.833387 3.83186,-2.16509 4.83279,-4.16694 2.00185,-2.99847 2.99847,-8.16633 2.99847,-15.6668 0,-8.50141 -0.833387,-14.3351 -2.50016,-17.5011 -0.996628,-1.66677 -2.6634,-2.99847 -5.16356,-3.9994 -2.33262,-1.00092 -10.6665,-1.3317 -24.6665,-1.3317l-58.002 0c18.167,-23.5024 27.3342,-53.5 27.3342,-90.0015 0,-41.6651 -16.0019,-77.1656 -47.8338,-106.832 -31.9995,-29.6669 -74.833,-44.5003 -128.501,-44.5003 -22.1664,0 -44.6678,3.33355 -67.8308,9.83311 -14.3351,-12.3333 -24.0007,-23.1673 -29.001,-32.4978 -5.16786,-9.33479 -7.66802,-17.1704 -7.66802,-23.6699 0,-5.49864 2.6677,-10.834 7.9988,-16.1651 5.50293,-5.16786 16.0019,-8.83218 31.5012,-11.1648 9.16726,-1.336 31.9995,-2.50016 68.501,-3.50108 67.0017,-1.49924 110.501,-3.83616 130.335,-6.83463 30.1652,-4.16694 54.3334,-15.3317 72.4961,-33.6663 18.0037,-18.167 27.0035,-40.6684 27.0035,-67.3325 0,-36.8323 -17.1661,-71.3362 -51.67,-103.499 -50.8323,-47.5031 -116.996,-71.3362 -198.664,-71.3362 -62.8348,0 -116,14.1676 -159.336,42.5027 -24.3315,16.3327 -36.4972,33.1636 -36.4972,50.8323 0,7.83126 1.66677,15.4993 5.3311,23.3305 5.50293,12.17 17.0028,28.8335 34.1689,50.334 2.33262,3.00277 18.8328,20.4996 49.8314,52.6666 -16.9985,10.1682 -28.8335,19.1679 -35.8313,27.1667 -7.00217,8.00309 -10.499,17.0028 -10.499,27.1667 0,11.3366 4.49771,24.6665 13.8325,40.0026 9.3305,15.3317 30.6635,36.9998 64.1665,64.9999zm84.9969 273.832c-23.9964,0 -44.3328,-9.66557 -60.4979,-28.8335 -16.3327,-19.1679 -24.499,-48.6672 -24.499,-88.3347 0,-51.4982 11.1648,-91.3332 33.3312,-119.664 16.8353,-21.5005 38.3358,-32.167 64.334,-32.167 24.8341,0 45.1661,9.16726 61.0005,27.8325 16.0019,18.5021 24.0007,47.6663 24.0007,87.3338 0,51.8332 -11.1691,92.3341 -33.6663,121.666 -16.6677,21.5005 -38.0007,32.167 -64.0033,32.167zm-89.8297 -437c-15.336,-16.6677 -26.8359,-31.9995 -34.6672,-46.3346 -7.83556,-14.3308 -11.6674,-27.4975 -11.6674,-39.6675 0,-15.4993 9.33479,-29.1643 28.3309,-40.9992 32.5021,-20.1645 79.5025,-30.1652 141.001,-30.1652 58.6679,0 101.832,10.3314 129.669,30.9986 27.8325,20.6671 41.8326,42.666 41.8326,66.1684 0,16.831 -8.33387,28.8335 -25.0016,35.9989 -16.831,7.16541 -50.4972,11.4999 -100.5,12.8359 -73.3338,1.83001 -129.665,5.66617 -168.997,11.1648z" />
         </glyph>
         <glyph id="glyph3665" horiz-adv-x="332" unicode="f">
            <path id="path3667" d="M206.001 412.166l0 -294.001c0,-41.6651 4.66525,-67.9984 13.665,-79.1632 12.1657,-14.3351 28.1676,-21.5005 48.3322,-21.5005l40.6684 0 0 -17.5011 -267.165 0 0 17.5011 19.997 0c12.9991,0 25.0016,3.33355 35.6681,9.83311 10.6665,6.49956 18.167,15.3317 22.1664,26.3333 4.16694,11.1648 6.16878,32.6653 6.16878,64.4973l0 294.001 -87.003 0 0 35.1655 87.003 0 0 29.1685c0,44.6678 7.16541,82.501 21.4962,113.332 14.3351,31.0029 36.1664,56.0002 65.67,75.0005 29.4993,19.0004 62.4997,28.5027 99.332,28.5027 34.1646,0 65.6657,-11.0016 94.3317,-33.1679 18.8328,-14.6659 28.1676,-31.1661 28.1676,-49.3331 0,-9.83311 -4.16694,-19.0004 -12.6683,-27.5018 -8.49711,-8.66465 -17.4968,-12.9991 -27.3299,-12.9991 -7.50048,0 -15.336,2.6677 -23.6699,7.9988 -8.32957,5.3354 -18.4978,17.0028 -30.5002,34.6672 -11.9982,17.8362 -23.163,29.6669 -33.1636,35.9989 -10.1682,6.16878 -21.333,9.16726 -33.6663,9.16726 -15.001,0 -27.6693,-3.9994 -38.1683,-11.9982 -10.3314,-7.83556 -17.8319,-20.3321 -22.5014,-36.9998 -4.49771,-16.8353 -6.83034,-59.9996 -6.83034,-129.669l0 -32.167 115.334 0 0 -35.1655 -115.334 0z" />
         </glyph>
         <glyph id="glyph3669" horiz-adv-x="443" unicode="e">
            <path id="path3671" d="M106.502 278.832c-0.335073,-66.4991 15.6668,-118.5 48.3322,-156.333 32.4978,-37.6657 70.8336,-56.4985 114.668,-56.4985 29.3318,0 54.8317,7.9988 76.4998,24.1639 21.6638,16.0019 39.6632,43.6669 54.3334,82.6686l15.1642 -9.66557c-6.83463,-44.6678 -26.6641,-85.3363 -59.5013,-121.833 -32.9961,-36.669 -74.1629,-54.9992 -123.496,-54.9992 -53.8351,0 -99.8346,20.8304 -138.003,62.663 -38.3315,41.8369 -57.3319,98.1678 -57.3319,168.834 0,76.4998 19.4987,136.169 58.8311,178.835 39.1692,42.8335 88.3347,64.334 147.668,64.334 50.1665,0 91.3332,-16.5002 123.5,-49.6681 32.167,-33.0004 48.3322,-77.1656 48.3322,-132.5l-308.998 0zm0 28.3352l206.998 0c-1.66677,28.6659 -5.00032,48.8305 -10.3314,60.4979 -8.00309,18.167 -20.1688,32.5021 -36.334,43.0011 -16.1694,10.3314 -33.0004,15.6668 -50.5015,15.6668 -26.9992,0 -51.1674,-10.499 -72.5004,-31.5012 -21.333,-20.9979 -33.8338,-50.334 -37.3306,-87.6646z" />
         </glyph>
         <glyph id="glyph3673" horiz-adv-x="499" unicode="d">
            <path id="path3675" d="M347.166 50.334c-21.8313,-22.8322 -43.1643,-39.1692 -63.999,-49.1655 -20.8347,-9.83311 -43.3318,-14.8334 -67.3325,-14.8334 -48.8348,0 -91.5007,20.4996 -128.002,61.3313 -36.334,40.8317 -54.6642,93.3351 -54.6642,157.334 0,64.1665 20.1645,122.834 60.6654,176.167 40.3334,53.1649 92.1666,79.8333 155.667,79.8333 39.3324,0 71.9978,-12.6683 97.6652,-37.6657l0 82.4967c0,51.1674 -1.16416,82.501 -3.66433,94.336 -2.50016,11.6674 -6.33632,19.6662 -11.4999,23.8332 -5.16786,4.33447 -11.6674,6.33202 -19.503,6.33202 -8.49711,0 -19.6662,-2.50016 -33.6663,-7.83126l-6.33202 17.1661 133.333 54.6642 21.8313 0 0 -517.164c0,-52.3358 1.336,-84.3353 3.66862,-95.8352 2.50016,-11.6674 6.33202,-19.6662 11.835,-24.1639 5.3311,-4.66954 11.6631,-6.83463 18.6653,-6.83463 8.83218,0 20.6671,2.6677 35.1655,8.33387l5.49864 -17.1661 -132.831 -55.1668 -22.5014 0 0 63.999zm0 34.1646l0 230.5c-1.99755,22.0031 -7.83126,42.3352 -17.5011,60.5022 -9.83311,18.167 -22.8322,31.9995 -38.8298,41.1667 -16.1694,9.3305 -31.8362,14 -47.168,14 -28.6659,0 -54.1659,-12.8359 -76.6673,-38.499 -29.6669,-34.0013 -44.5003,-83.3344 -44.5003,-148.502 0,-65.8333 14.3351,-116.167 43.0011,-151.165 28.6659,-35.0023 60.4979,-52.5034 95.6677,-52.5034 29.6669,0 58.3328,14.8334 85.9978,44.5003z" />
         </glyph>
         <glyph id="glyph3677" horiz-adv-x="443" unicode="c">
            <path id="path3679" d="M411.165 169.998c-11.9982,-58.9986 -35.6638,-104.332 -70.8336,-135.997 -35.1655,-31.8362 -73.9996,-47.6663 -116.666,-47.6663 -50.8323,0 -95.1651,21.333 -132.831,63.999 -37.8332,42.666 -56.6703,100.165 -56.6703,172.833 0,70.331 21.0022,127.5 62.8348,171.334 41.8326,43.9977 91.9991,65.9965 150.499,65.9965 44.002,0 80.1684,-11.6631 108.499,-34.998 28.3352,-23.1673 42.5027,-47.3312 42.5027,-72.5004 0,-12.3333 -3.9994,-22.3339 -12.0025,-29.9976 -7.9988,-7.66802 -19.1636,-11.4999 -33.4987,-11.4999 -19.1679,0 -33.6663,6.16449 -43.4994,18.4978 -5.49864,6.83463 -9.16726,20.0013 -10.834,39.1649 -1.83431,19.1679 -8.50141,33.8338 -19.8338,44.002 -11.4999,9.66557 -27.1667,14.4984 -47.3312,14.4984 -32.6696,0 -58.8354,-11.9982 -78.6692,-35.9989 -26.3333,-31.9995 -39.5,-74.1671 -39.5,-126.499 0,-53.3325 13.0034,-100.5 39.3367,-141.332 26.1658,-40.836 61.4988,-61.3356 106.167,-61.3356 31.8319,0 60.4979,10.834 85.8303,32.6653 17.9994,15.001 35.333,42.1677 52.3358,81.6676l14.1633 -6.83463z" />
         </glyph>
         <glyph id="glyph3681" horiz-adv-x="499" unicode="b">
            <path id="path3683" d="M153.833 370.166c43.3318,60.1671 90.0015,90.3323 140.168,90.3323 45.832,0 85.8346,-19.6662 119.999,-58.8311 34.1646,-39.3324 51.3349,-92.8324 51.3349,-160.998 0,-79.335 -26.3333,-143.334 -79.1675,-191.834 -45.1661,-41.6694 -95.6677,-62.4997 -151.333,-62.4997 -26.0025,0 -52.5034,4.66525 -79.335,14.1633 -26.8316,9.50233 -54.3334,23.6699 -82.3335,42.5027l0 463.333c0,50.8323 -1.16416,81.9984 -3.66433,93.8334 -2.33692,11.6674 -6.16878,19.6662 -11.3366,23.8332 -5.3311,4.33447 -11.8307,6.33202 -19.6662,6.33202 -8.99972,0 -20.4996,-2.50016 -34.1646,-7.83126l-6.83463 17.1661 134.334 54.6642 21.9988 0 0 -324.166zm0 -31.3336l0 -267.5c16.5002,-16.3327 33.6663,-28.6659 51.5025,-36.8323 17.6644,-8.33387 35.8313,-12.5008 54.4966,-12.5008 29.4993,0 57.1686,16.3327 82.6686,48.8348 25.4999,32.4978 38.3315,79.8333 38.3315,141.998 0,57.3362 -12.8316,101.334 -38.3315,132.169 -25.4999,30.6678 -54.5009,46.1671 -87.1663,46.1671 -17.1661,0 -34.4996,-4.50201 -51.6657,-13.1667 -13.0034,-6.49956 -29.6669,-19.6662 -49.8357,-39.1692z" />
         </glyph>
         <glyph id="glyph3685" horiz-adv-x="443" unicode="a">
            <path id="path3687" d="M284.666 64.5016c-45.832,-35.5006 -74.6655,-56.0002 -86.5004,-61.5031 -17.5011,-8.16633 -36.1664,-12.3333 -56.0002,-12.3333 -30.9986,0 -56.4985,10.6665 -76.4998,31.8362 -19.997,21.1655 -29.9976,48.998 -29.9976,83.4976 0,21.8356 4.83279,40.6684 14.6659,56.666 13.3342,22.0031 36.4972,42.8335 69.4976,62.4997 33.0004,19.503 87.9997,43.1686 164.835,71.1687l0 17.6644c0,44.5003 -6.99787,75.1681 -21.1655,91.8358 -14.1676,16.5002 -34.8347,24.8341 -61.8339,24.8341 -20.4996,0 -36.8323,-5.50293 -48.8348,-16.6677 -12.3333,-11.0016 -18.4978,-23.6656 -18.4978,-38.0007l1.00092 -28.3309c0,-15.001 -3.83616,-26.5008 -11.4999,-34.6672 -7.66802,-8.16633 -17.6687,-12.17 -30.0019,-12.17 -12.1657,0 -21.9988,4.16694 -29.6669,12.6683 -7.66802,8.50141 -11.4999,20.0013 -11.4999,34.6672 0,28.0001 14.3351,53.6675 43.0011,77.1656 28.6659,23.3348 68.8318,35.1655 120.665,35.1655 39.6675,0 72.1653,-6.6628 97.6652,-19.997 19.1679,-10.1682 33.3355,-26.0025 42.5027,-47.4988 5.83371,-14 8.66465,-42.5027 8.66465,-85.8346l0 -151.835c0,-42.666 0.833387,-68.8318 2.50016,-78.4973 1.66677,-9.50233 4.33447,-16.0019 8.00309,-19.1679 3.83186,-3.33355 8.16633,-5.00032 12.9991,-5.00032 5.16356,0 9.83311,1.16846 13.665,3.50108 6.83463,4.16694 20.0013,16.1651 39.5,35.6638l0 -27.3299c-36.334,-48.8348 -71.1644,-73.3338 -104.5,-73.3338 -15.8344,0 -28.4984,5.49864 -38.0007,16.6634 -9.49803,11.0016 -14.3308,30.0019 -14.6659,56.6703zm0 31.6644l0 170.501c-49.1655,-19.6662 -80.8342,-33.4987 -95.1651,-41.5018 -25.835,-14.3308 -44.1695,-29.3318 -55.1668,-44.9986 -11.1691,-15.6668 -16.6677,-32.6653 -16.6677,-51.3349 0,-23.3305 7.00217,-42.8292 21.0022,-58.3328 14,-15.3317 30.1652,-23.1673 48.3322,-23.1673 24.8341,0 57.3319,16.337 97.6652,48.8348z" />
         </glyph>
         <glyph id="glyph3689" horiz-adv-x="541" unicode="~">
            <path id="path3691" d="M508.834 329.665l21.9988 0c-1.3317,-42.3309 -13.3342,-75.4989 -36.1664,-99.4995 -22.8322,-23.8332 -50.6648,-35.8313 -83.5019,-35.8313 -14.9967,0 -31.1661,2.50016 -48.3322,7.50048 -17.3336,5.16356 -61.8339,22.3339 -133.832,51.6657 -50.1665,20.8347 -85.8346,31.1661 -107,31.1661 -22.669,0 -42.0001,-6.99787 -57.4994,-20.9979 -15.6668,-14 -26.6684,-36.8366 -33.1679,-68.3334l-21.5005 0c1.83431,43.9977 14,77.5007 35.9989,100.831 22.1664,23.3348 48.1689,34.8347 78.1665,34.8347 14.3351,0 29.001,-2.16938 44.002,-6.83463 33.8338,-9.66557 78.3341,-26.3333 133.501,-49.9989 55.1668,-23.6656 93.9966,-35.333 116.498,-35.333 24.3358,0 44.8354,7.83126 61.4988,23.3305 16.6677,15.6668 26.3333,38.1683 29.3361,67.5001z" />
         </glyph>
         <glyph id="glyph3693" horiz-adv-x="443" unicode="z">
            <path id="path3695" d="M420.001 137.165l-5.50293 -137.165 -394.497 0 0 17.5011 296.832 395.666 -146.5 0c-31.5012,0 -52.1683,-2.16509 -62.0014,-6.16878 -9.66557,-4.16264 -17.6644,-11.8307 -23.8332,-23.163 -8.83218,-16.337 -13.8325,-36.5015 -15.1642,-60.6697l-19.503 0 2.83523 124.166 374.998 0 0 -18.1627 -299.667 -396.503 163 0c34.1689,0 57.3362,2.83523 69.6694,8.66894 12.1657,5.66617 21.9988,15.6668 29.4993,29.9976 5.16786,10.3357 9.49803,32.3346 13.1667,65.8333l16.6677 0z" />
         </glyph>
         <glyph id="glyph3697" horiz-adv-x="499" unicode="y">
            <path id="path3699" d="M5.83371 447.331l208.501 0 0 -18.1627 -10.1682 0c-14.6659,0 -25.6675,-3.17031 -33.0004,-9.50233 -7.33295,-6.33202 -11.0016,-14.1676 -11.0016,-23.6656 0,-12.6683 5.3354,-30.3327 16.1694,-52.6666l108.834 -225.667 100.165 247c5.49864,13.5017 8.16633,26.6684 8.16633,39.6675 0,5.83371 -1.16846,10.1639 -3.33355,13.1667 -2.6677,3.49679 -6.6671,6.33202 -12.1657,8.49711 -5.66617,2.16938 -15.336,3.17031 -29.3361,3.17031l0 18.1627 145.503 0 0 -18.1627c-12.0025,-1.336 -21.333,-3.83616 -27.8368,-7.83556 -6.49956,-3.83186 -13.665,-11.1648 -21.4962,-21.9988 -3.00277,-4.50201 -8.50141,-17.0028 -16.6677,-37.5024l-182.001 -446.33c-17.6687,-43.3361 -40.6684,-76.0015 -69.1668,-98.1678 -28.4984,-22.1664 -55.8326,-33.1679 -82.3335,-33.1679 -19.1679,0 -34.998,5.50293 -47.3355,16.6677 -12.3333,11.0016 -18.4978,23.6656 -18.4978,38.0007 0,13.665 4.49771,24.6665 13.3342,33.0004 8.99972,8.33387 21.333,12.5008 36.9998,12.5008 10.6665,0 25.3324,-3.66862 43.8344,-10.834 12.9991,-4.83279 21.1655,-7.33295 24.499,-7.33295 9.66557,0 20.3321,5.16356 31.9995,15.1642 11.4999,10.1682 23.1673,29.6669 34.8347,58.6679l31.8319 77.5007 -160.668 337.5c-5.00032,10.0006 -12.664,22.6647 -23.4981,37.4981 -8.16633,11.4999 -14.8334,19.1679 -20.0013,22.9998 -7.50048,5.16786 -19.4987,9.83311 -36.1664,13.6693l0 18.1627z" />
         </glyph>
         <glyph id="glyph3701" horiz-adv-x="499" unicode="x">
            <path id="path3703" d="M13.1667 447.331l210.499 0 0 -18.1627c-13.3342,0 -22.6647,-2.16938 -28.1676,-6.83463 -5.3311,-4.50201 -7.9988,-10.499 -7.9988,-17.9994 0,-7.83556 5.66617,-19.8338 17.1661,-36.1664 3.50108,-5.16786 8.83648,-13.3342 16.0019,-24.3358l31.8319 -50.8323 36.5015 50.8323c23.4981,32.167 35.1655,52.4991 35.1655,61.0005 0,6.83463 -2.6677,12.5008 -8.16633,17.3336 -5.66617,4.66525 -14.4984,7.00217 -26.9992,7.00217l0 18.1627 151.5 0 0 -18.1627c-16.0019,-1.00092 -29.8344,-5.3354 -41.5018,-13.1667 -15.9976,-11.0016 -37.8332,-35.1698 -65.4982,-72.1696l-61.0005 -81.6676 111.334 -160.165c27.3299,-39.3324 46.8329,-62.998 58.5003,-71.0011 11.8307,-7.9988 26.8316,-12.4965 45.4969,-13.4974l0 -17.5011 -210.997 0 0 17.5011c14.6659,0 25.9982,3.33355 34.1646,9.83311 6.16878,4.49771 9.33479,10.6665 9.33479,17.9994 0,7.50048 -10.499,26.5008 -31.3336,56.666l-65.335 95.8352 -71.8302 -95.8352c-22.1707,-29.4993 -33.1679,-47.168 -33.1679,-52.6666 0,-7.83126 3.66433,-14.8334 10.9973,-21.333 7.33724,-6.33202 18.3345,-9.83311 33.0004,-10.499l0 -17.5011 -145.997 0 0 17.5011c11.6674,1.66677 21.8313,5.83371 30.6635,12.3333 12.3376,9.3305 33.1679,33.4987 62.504,72.1653l93.8334 124.501 -85.0012 123.165c-24.1682,35.1655 -42.666,57.1686 -56.0002,66.1684 -13.1667,8.83218 -29.6669,13.3342 -49.5006,13.3342l0 18.1627z" />
         </glyph>
         <glyph id="glyph3705" horiz-adv-x="722" unicode="w">
            <path id="path3707" d="M6.33202 447.331l187.499 0 0 -18.1627c-17.1661,-1.336 -28.4984,-4.33447 -33.997,-9.16726 -5.3354,-5.00032 -7.9988,-12.0025 -7.9988,-21.0022 0,-10.1639 2.83094,-22.3339 8.32957,-36.6647l95.6677 -257.336 96.166 209.502 -25.3324 65.8333c-7.83126,19.4987 -17.9994,33.0004 -30.831,40.5009 -7.16971,4.66525 -20.5039,7.33295 -40.0026,8.33387l0 18.1627 212.999 0 0 -18.1627c-23.4981,-1.00092 -40.1658,-5.16786 -49.8314,-12.6683 -6.49956,-5.16786 -9.83311,-13.5017 -9.83311,-24.8341 0,-6.49956 1.3317,-13.1667 3.9994,-20.0013l101.501 -256.997 94.1641 247.666c6.49956,17.5011 9.83311,31.4969 9.83311,42.0001 0,6.16449 -3.16601,11.6674 -9.49803,16.5002 -6.33202,5.00032 -18.8328,7.66372 -37.3349,8.33387l0 18.1627 141.001 0 0 -18.1627c-28.3352,-4.16694 -49.1655,-23.3348 -62.4997,-57.5037l-149.335 -385.33 -19.997 0 -111.837 285.667 -130.331 -285.667 -18.167 0 -143.502 375.999c-9.49803,23.6656 -18.6653,39.8307 -27.8325,47.9971 -9.16726,8.33387 -23.4981,14.6702 -43.0011,18.8371l0 18.1627z" />
         </glyph>
         <glyph id="glyph3709" horiz-adv-x="499" unicode="v">
            <path id="path3711" d="M8.33387 447.331l210.499 0 0 -18.1627 -13.8325 0c-12.6683,0 -22.3339,-3.00277 -29.001,-9.16726 -6.6671,-6.33632 -10.0006,-14.5027 -10.0006,-25.0016 0,-11.3323 3.50108,-24.8341 10.3357,-40.5009l103.997 -247 104.5 256.335c7.50048,18.167 11.1691,31.9995 11.1691,41.5018 0,4.49771 -1.336,8.16633 -3.83186,11.1648 -3.66862,4.83279 -8.17063,8.16633 -13.6693,10.0006 -5.66617,1.83431 -16.831,2.6677 -33.8338,2.6677l0 18.1627 146.002 0 0 -18.1627c-16.8353,-1.336 -28.6659,-4.66954 -35.1655,-10.1682 -11.3366,-9.83311 -21.5005,-26.1658 -30.6678,-48.8348l-158.666 -383.831 -20.0013 0 -159.667 377.499c-7.16541,17.5011 -14,30.1652 -20.4996,37.8332 -6.6671,7.66802 -14.8334,14 -25.0016,19.1679 -5.49864,2.99847 -16.5002,5.83371 -32.6653,8.33387l0 18.1627z" />
         </glyph>
         <glyph id="glyph3713" horiz-adv-x="499" unicode="u">
            <path id="path3715" d="M423.335 447.331l0 -270.997c0,-51.8332 1.16416,-83.5019 3.66433,-95.0018 2.50016,-11.6674 6.33202,-19.6662 11.6674,-24.1639 5.49864,-4.66954 11.6674,-6.83463 18.8328,-6.83463 10.1682,0 21.5005,2.6677 34.1689,8.33387l6.83034 -17.1661 -133.832 -55.1668 -21.8356 0 0 94.6668c-38.499,-41.6694 -67.8308,-67.8351 -87.9997,-78.5016 -20.1645,-10.834 -41.4975,-16.1651 -63.8314,-16.1651 -25.1649,0 -46.8329,7.16541 -65.335,21.6638 -18.3302,14.5027 -31.1661,33.1679 -38.3315,56.0002 -7.16541,22.8322 -10.6665,54.9992 -10.6665,96.6686l0 199.665c0,21.1655 -2.33262,35.8356 -6.83463,44.002 -4.49771,8.16633 -11.3323,14.3308 -20.3321,18.8328 -8.83218,4.33447 -25.1691,6.33202 -48.4997,6.00125l0 18.1627 156.664 0 0 -299.332c0,-41.6651 7.33724,-68.9993 21.8356,-81.9984 14.4984,-13.1667 31.9995,-19.6662 52.4991,-19.6662 14,0 29.8344,4.49771 47.4988,13.1667 17.8362,8.83218 38.8341,25.6675 63.3331,50.334l0 253.5c0,25.3324 -4.66525,42.4984 -14,51.4982 -9.3305,8.83218 -28.4984,13.665 -57.8302,14.3351l0 18.1627 152.334 0z" />
         </glyph>
         <glyph id="glyph3717" horiz-adv-x="277" unicode="t">
            <path id="path3719" d="M161.166 594.166l0 -146.835 104.5 0 0 -34.1646 -104.5 0 0 -290.165c0,-29.001 4.16694,-48.504 12.5008,-58.5003 8.16633,-10.1682 18.8328,-15.1685 31.8319,-15.1685 10.834,0 21.1697,3.33355 31.3336,10.0006 10.0006,6.6671 17.8362,16.5002 23.5024,29.4993l19.0004 0c-11.4999,-31.8319 -27.5018,-55.8326 -48.3364,-71.9978 -20.8304,-16.1694 -42.3309,-24.1682 -64.4973,-24.1682 -15.001,0 -29.6669,4.16694 -44.002,12.5008 -14.3308,8.33387 -24.8341,20.1645 -31.6644,35.6638 -6.83463,15.336 -10.3357,39.1692 -10.3357,71.5037l0 300.831 -70.6661 0 0 16.0019c17.8319,7.16541 36.1664,19.3311 54.8317,36.3297 18.6696,17.1704 35.5006,37.5024 50.0032,60.8373 7.50048,12.3333 17.9994,34.998 31.3336,67.8308l15.1642 0z" />
         </glyph>
         <glyph id="glyph3721" horiz-adv-x="389" unicode="s">
            <path id="path3723" d="M320.334 460.498l0 -152.329 -16.1694 0c-12.3333,47.8295 -28.1633,80.3316 -47.4988,97.6652 -19.4987,17.1661 -44.1652,25.835 -73.9996,25.835 -22.8322,0 -41.1667,-6.00125 -55.1668,-18.167 -14,-12.0025 -20.9979,-25.3367 -20.9979,-40.0026 0,-18.167 5.16356,-33.8338 15.4993,-46.8329 10.1639,-13.3342 30.6678,-27.4975 61.6663,-42.4984l71.1644 -34.6672c66.1684,-32.167 99.1688,-74.6655 99.1688,-127.5 0,-40.6684 -15.3317,-73.3338 -46.1671,-98.3354 -30.6678,-24.8341 -65.1674,-37.3306 -103.168,-37.3306 -27.4975,0 -58.6636,4.83279 -93.8334,14.6659 -10.6665,3.16601 -19.4987,4.83279 -26.3333,4.83279 -7.50048,0 -13.3299,-4.16694 -17.6644,-12.6683l-16.0019 0 0 159.667 16.0019 0c9.16726,-45.4969 26.6641,-79.8333 52.3316,-103.001 25.6675,-23.163 54.5009,-34.6629 86.3329,-34.6629 22.5014,0 40.836,6.49956 54.9992,19.6662 14.1676,13.3299 21.1697,29.1643 21.1697,47.6663 0,22.4972 -7.83556,41.3343 -23.6656,56.666 -15.6668,15.3317 -47.168,34.6672 -94.5035,58.1653 -47.1637,23.3348 -77.999,44.5003 -92.6649,63.3331 -14.6659,18.6696 -21.9988,42.0001 -21.9988,70.3353 0,36.8323 12.664,67.6676 37.8332,92.3341 25.1649,24.6665 57.8302,37.163 97.8328,37.163 17.6644,0 38.9974,-3.83186 63.999,-11.3323 16.6677,-4.83279 27.665,-7.33295 33.1679,-7.33295 5.3311,0 9.3305,1.16846 12.3333,3.50108 2.83094,2.33262 6.33202,7.33295 10.1639,15.1642l16.1694 0z" />
         </glyph>
         <glyph id="glyph3725" horiz-adv-x="332" unicode="r">
            <path id="path3727" d="M162.167 460.498l0 -100.664c37.3349,67.165 75.8339,100.664 115.166,100.664 17.8319,0 32.6653,-5.49864 44.5003,-16.3327 11.6674,-10.9973 17.5011,-23.6656 17.5011,-37.8332 0,-12.8316 -4.16694,-23.4981 -12.6683,-32.3303 -8.50141,-8.83648 -18.4978,-13.1667 -30.3327,-13.1667 -11.3323,0 -24.1682,5.66617 -38.3315,16.831 -14.1676,11.1691 -24.6708,16.8353 -31.5012,16.8353 -5.83371,0 -12.1657,-3.16601 -19.0004,-9.66987 -14.6659,-13.3299 -29.8344,-35.333 -45.3337,-65.9965l0 -214.335c0,-24.6665 2.99847,-43.4994 9.16726,-56.1677 4.33447,-8.83218 11.8307,-16.1651 22.4972,-21.9988 10.834,-5.83371 26.1701,-8.83218 46.3346,-8.83218l0 -17.5011 -229.001 0 0 17.5011c22.8365,0 39.835,3.66433 50.8366,10.834 8.16633,5.16356 13.8325,13.4974 17.1661,24.8298 1.49924,5.67047 2.33262,21.333 2.33262,47.5031l0 173.332c0,52.0008 -1.00092,82.9993 -3.16601,93 -2.00185,9.83311 -6.00125,17.1661 -11.6674,21.6681 -5.66617,4.49771 -12.8316,6.83034 -21.333,6.83034 -10.0006,0 -21.333,-2.49587 -34.1689,-7.33295l-4.83279 17.6687 135.335 54.6642 20.4996 0z" />
         </glyph>
         <glyph id="glyph3729" horiz-adv-x="499" unicode="q">
            <path id="path3731" d="M427.167 460.498l0 -575.166c0,-28.6659 2.00185,-47.1637 6.00125,-55.33 3.83186,-8.00309 10.0006,-14.3351 18.3302,-19.0004 8.17063,-4.50201 24.3358,-6.83463 48.4997,-6.83463l0 -17.9994 -225.663 0 0 17.9994 9.3305 0c18.3345,0 32.167,2.6677 41.5018,7.83126 6.49956,3.66862 11.6674,10.0006 15.6668,19.3354 3.83186,9.16726 5.83371,27.1667 5.83371,53.9983l0 192.336c-29.6669,-35.1698 -55.5019,-59.1662 -77.6682,-72.0021 -22.1664,-12.8316 -44.9986,-19.3311 -68.8318,-19.3311 -43.3361,0 -82.0027,19.6662 -116,58.9986 -34.0013,39.5 -50.9998,92.1666 -50.9998,158.335 0,75.8296 22.4972,137.496 67.5001,185.33 44.8311,47.6663 98.9969,71.4995 162.498,71.4995 18.5021,0 35.6681,-2.6634 51.3349,-7.83126 15.4993,-5.16786 29.4993,-12.9991 42.0001,-23.4981 18.8328,9.16296 36.8323,19.4987 54.1659,31.3293l16.5002 0zm-80.4992 -352.166l0 210.001c0,24.499 -3.16601,43.6669 -9.50233,57.6669 -6.33202,14 -17.6644,25.835 -33.997,35.6681 -16.1694,9.66557 -34.6672,14.6659 -55.1668,14.6659 -36.334,0 -67.6676,-15.4993 -93.6701,-46.4978 -25.9982,-30.8353 -39.1649,-77.6682 -39.1649,-140.503 0,-60.3303 13.3342,-105.999 39.835,-137.333 26.4966,-31.1661 58.5003,-46.8329 95.9985,-46.8329 19.1679,0 36.334,4.16694 51.1674,12.5008 15.001,8.33387 29.8344,21.8313 44.5003,40.6641z" />
         </glyph>
         <glyph id="glyph3733" horiz-adv-x="499" unicode="p">
            <path id="path3735" d="M-1.00092 402.835l137.668 55.6651 18.6653 0 0 -104.5c22.9998,39.3324 46.1671,66.9974 69.5019,82.8318 23.3305,15.6668 47.8338,23.6656 73.5013,23.6656 44.9986,0 82.3292,-17.6644 112.331,-52.8299 36.8323,-43.0011 55.1668,-98.8337 55.1668,-168.001 0,-77.0024 -22.1664,-140.834 -66.4991,-191.335 -36.334,-41.3343 -82.3335,-61.9971 -137.668,-61.9971 -24.0007,0 -44.8311,3.33355 -62.4997,10.1639 -12.9991,5.00032 -27.665,14.6659 -43.8344,29.3361l0 -136.169c0,-30.6678 1.83431,-49.9989 5.50293,-58.3328 3.83186,-8.33387 10.3314,-15.001 19.6662,-19.8338 9.16726,-4.83279 25.9982,-7.33295 50.4972,-7.33295l0 -17.9994 -234.5 0 0 17.9994 12.3333 0c17.8362,-0.335073 33.1679,3.16601 45.8363,10.3314 6.16449,3.50108 10.9973,9.33479 14.4984,17.3336 3.33355,8.00309 5.00032,28.1676 5.00032,60.6697l0 423c0,28.8335 -1.16846,47.3312 -3.83186,55.1668 -2.6677,7.83126 -6.83463,13.665 -12.5008,17.4968 -5.66617,4.00369 -13.3342,5.83371 -23.1673,5.83371 -7.83556,0 -17.6687,-2.16509 -29.8344,-6.83034l-5.83371 15.6668zm156.333 -77.6682l0 -167c0,-36.1664 1.336,-59.832 4.33447,-71.3362 4.50201,-18.8328 15.6668,-35.333 33.4987,-49.6639 17.6687,-14.3351 40.0026,-21.5005 67.1693,-21.5005 32.4978,0 58.8311,12.6683 78.9999,38.0007 26.3333,33.1636 39.5,80.0009 39.5,140.164 0,68.3334 -14.8334,121 -44.8354,157.669 -20.8304,25.4999 -45.6645,38.1683 -74.1671,38.1683 -15.6668,0 -31.1661,-4.00369 -46.4978,-11.6674 -11.6674,-6.00125 -31.0029,-23.5024 -58.002,-52.8342z" />
         </glyph>
         <glyph id="glyph3737" horiz-adv-x="759" unicode="®">
            <path id="path3739" d="M379.835 677.166c58.3328,0 115.166,-14.8334 170.496,-44.6635 55.3343,-29.6669 98.5029,-72.3371 129.669,-127.835 30.9986,-55.5019 46.4978,-113.332 46.4978,-173.667 0,-59.832 -15.1642,-117.336 -45.832,-172.335 -30.6678,-54.9992 -73.3338,-97.6652 -128.501,-128.165 -54.9992,-30.5002 -112.331,-45.6688 -172.331,-45.6688 -59.8363,0 -117.168,15.1685 -172.004,45.6688 -54.9992,30.5002 -97.6652,73.1662 -128.165,128.165 -30.6678,54.9992 -45.9995,112.503 -45.9995,172.335 0,60.3346 15.4993,118.165 46.6654,173.667 31.0029,55.4976 74.3347,98.1678 129.669,127.835 55.3343,29.8301 112,44.6635 169.835,44.6635zm0 -29.6669c-53.0017,0 -104.835,-13.665 -155.169,-40.9992 -50.5015,-27.3342 -89.834,-66.3316 -118.165,-117.001 -28.3352,-50.6648 -42.5027,-103.499 -42.5027,-158.498 0,-54.6685 13.8325,-107 41.6694,-157.166 27.8325,-50.1665 66.8299,-89.1681 116.996,-117.168 50.1708,-28.0001 102.502,-42.0001 157.171,-42.0001 54.6642,0 107.163,14 157.497,42.0001 50.334,28.0001 89.3357,67.0017 117.168,117.168 27.8325,50.1665 41.8326,102.498 41.8326,157.166 0,54.9992 -14.1676,107.833 -42.4984,158.498 -28.3352,50.6691 -67.6676,89.6664 -118.169,117.001 -50.4972,27.3342 -102.335,40.9992 -155.83,40.9992zm-191.335 -103.499l188.5 0c47.168,0 83.1669,-10.6665 107.833,-31.9995 24.8341,-21.333 37.1673,-47.168 37.1673,-77.5007 0,-24.6665 -8.33387,-46.3346 -25.1691,-65.1674 -16.831,-18.6653 -44.5003,-33.0004 -83.3301,-43.1643l102.163 -145.503c12.3333,-17.3293 23.3348,-29.1643 33.1679,-35.6638 6.16878,-3.83616 14.8334,-6.33202 25.835,-7.33295l0 -16.0019 -89.834 0 -143.502 197.667 -37.1673 0 0 -150.834c2.00185,-10.834 6.6671,-18.6653 14,-23.4981 7.33724,-4.83279 21.8356,-7.33295 43.6669,-7.33295l0 -16.0019 -179.165 0 0 16.0019c15.4993,0 26.6684,1.83431 33.1679,5.66617 6.49956,3.66433 11.1648,9.16726 14.1676,16.3327 2.33262,5.16786 3.32925,20.3321 3.32925,45.3337l0 255.498c0,24.0007 -0.498314,38.1683 -1.3317,42.5027 -2.33262,7.50048 -6.49956,13.1667 -12.5008,17.3336 -5.99695,3.9994 -16.3327,6.00125 -30.9986,6.00125l0 17.6644zm115.665 -203.669c38.5033,0 66.5034,3.66862 84.3353,11.1691 17.6687,7.50048 31.3336,17.9994 40.6684,31.5012 9.49803,13.4974 14.1633,28.9967 14.1633,46.1671 0,26.3333 -9.16726,48.4997 -27.4975,66.4991 -18.5021,17.8319 -42.0001,26.8316 -70.6661,26.8316 -12.3333,0 -26.0025,-2.6677 -41.0035,-7.83126l0 -174.337z" />
         </glyph>
         <glyph id="glyph3741" horiz-adv-x="332" unicode="­">
            <path id="path3743" d="M40.5009 261.168l252.499 0 0 -73.6688 -252.499 0 0 73.6688z" />
         </glyph>
         <glyph id="glyph3745" horiz-adv-x="759" unicode="©">
            <path id="path3747" d="M379.835 677.166c58.3328,0 115.166,-14.8334 170.496,-44.6635 55.3343,-29.6669 98.5029,-72.3371 129.669,-127.835 30.9986,-55.5019 46.4978,-113.332 46.4978,-173.667 0,-59.832 -15.1642,-117.336 -45.832,-172.335 -30.6678,-54.9992 -73.3338,-97.6652 -128.501,-128.165 -54.9992,-30.5002 -112.331,-45.6688 -172.331,-45.6688 -59.8363,0 -117.168,15.1685 -172.004,45.6688 -54.9992,30.5002 -97.6652,73.1662 -128.165,128.165 -30.6678,54.9992 -45.9995,112.503 -45.9995,172.335 0,60.3346 15.4993,118.165 46.6654,173.667 31.0029,55.4976 74.3347,98.1678 129.669,127.835 55.3343,29.8301 112,44.6635 169.835,44.6635zm0 -29.6669c-53.0017,0 -104.835,-13.665 -155.169,-40.9992 -50.5015,-27.3342 -89.834,-66.3316 -118.165,-117.001 -28.3352,-50.6648 -42.5027,-103.499 -42.5027,-158.498 0,-54.6685 13.8325,-107 41.6694,-157.166 27.8325,-50.1665 66.8299,-89.1681 116.996,-117.168 50.1708,-28.0001 102.502,-42.0001 157.171,-42.0001 54.6642,0 107.163,14 157.497,42.0001 50.334,28.0001 89.3357,67.0017 117.168,117.168 27.8325,50.1665 41.8326,102.498 41.8326,157.166 0,54.9992 -14.1676,107.833 -42.4984,158.498 -28.3352,50.6691 -67.6676,89.6664 -118.169,117.001 -50.4972,27.3342 -102.335,40.9992 -155.83,40.9992zm171.497 -93.8334l9.66557 -136.667 -19.0004 0c-11.6631,38.6666 -30.3327,67.6676 -55.8326,86.668 -25.6675,19.0004 -56.3309,28.4984 -92.1666,28.4984 -26.6641,0 -50.334,-5.49864 -71.1644,-16.5002 -20.8347,-11.1648 -38.0007,-25.9982 -51.3349,-44.496 -9.83311,-14 -17.9994,-32.5021 -24.499,-55.6694 -6.49956,-23.1673 -9.66557,-47.4988 -9.66557,-73.1662 0,-68.9993 14.8334,-119.999 44.3328,-152.664 29.6669,-32.6696 68.8318,-49.0023 117.331,-49.0023 63.3331,0 114.17,26.3333 152.334,78.9999l17.9994 -9.16726c-45.1661,-66.1641 -107.498,-99.1645 -187.001,-99.1645 -65.1631,0 -118.998,20.9979 -161.832,63.1656 -42.8335,42.1677 -64.1665,93.3351 -64.1665,153.665 0,62.4997 22.669,115.837 68.3334,159.834 45.5012,44.1652 103.834,66.1684 174.668,66.1684 15.001,0 27.4975,-1.00092 37.4981,-2.83523 9.83311,-1.99755 27.5018,-7.16541 52.8342,-15.6668 8.16633,-2.6677 14.1676,-3.9994 18.167,-3.9994 5.16786,0 9.49803,1.49924 13.1667,4.16694 3.50108,2.83523 7.16541,8.83218 10.6665,17.8319l19.6662 0z" />
         </glyph>
         <glyph id="glyph3749" horiz-adv-x="499" unicode="£">
            <path id="path3751" d="M353 321.833l-126 0c0.335073,-15.001 0.50261,-26.1658 0.50261,-33.3355 0,-30.496 -2.16938,-58.8311 -6.50386,-84.8293 -4.49771,-26.1701 -12.3333,-56.0002 -23.6656,-89.834 63.6682,-20.4996 100.17,-31.8362 109.333,-33.8338 16.8353,-3.83616 33.503,-5.83371 49.8357,-5.83371 26.9992,0 48.998,6.33202 65.8333,18.8328 16.9985,12.5008 29.3318,32.3346 37.1673,59.3337l17.4968 -4.33447c-6.83034,-52.4991 -23.6656,-92.1666 -50.4972,-119.166 -26.8359,-26.9992 -56.666,-40.5009 -89.6664,-40.5009 -22.0031,0 -42.0001,3.9994 -59.9996,11.835 -17.8362,7.9988 -50.9998,30.1652 -99.1688,66.1641 -12.9991,-25.9982 -26.9992,-45.4969 -42.1677,-58.5003 -15.1642,-12.9991 -31.3336,-19.4987 -48.6672,-19.4987 -16.1651,0 -29.8301,5.49864 -40.6641,16.8353 -11.0016,11.1648 -16.3327,26.5008 -16.3327,46.1671 0,21.6638 7.50048,39.8307 22.3339,54.3334 14.9967,14.4984 34.3321,21.8313 57.6669,21.8313 5.49864,0 11.6631,-0.335073 18.6653,-1.00092 6.83463,-0.66585 14.3308,-1.66677 22.8322,-2.99847 0.66585,8.50141 1.16846,15.8344 1.336,21.9988 0.163241,6.16878 0.163241,11.3323 0.163241,15.6668 0,28.6659 -3.49679,82.1659 -10.3314,160.668l-94.6668 0 0 46.3346 94.6668 0c-4.16694,48.4997 -6.33202,80.83 -6.33202,97.1669 0,39.6632 7.9988,75.9972 23.9964,108.83 16.0019,33.0004 38.0007,58.002 66.1684,75.5031 28.1676,17.3336 58.3328,26.1658 90.4998,26.1658 40.9992,0 72.0021,-11.1691 92.6649,-33.3355 20.6671,-21.9988 31.0029,-44.1652 31.0029,-66.3316 0,-10.3314 -3.9994,-19.6662 -12.0025,-27.8325 -7.9988,-8.16633 -16.6634,-12.1657 -26.1658,-12.1657 -12.3333,0 -22.6647,6.16449 -30.6678,18.4978 -3.66433,5.83371 -6.16449,18.5021 -7.33295,37.8332 -1.3317,19.3354 -6.83034,33.6663 -16.6634,42.8335 -10.1682,8.99972 -24.3358,13.665 -42.5027,13.665 -25.6675,0 -47.0005,-10.1639 -63.6639,-30.3327 -16.8353,-20.1645 -25.1691,-55.6651 -25.1691,-106.497 0,-23.6699 2.00185,-54.1659 5.83371,-91.3332 2.33262,-24.3358 3.83186,-42.0001 4.83279,-52.6666l126 0 0 -46.3346zm-207.5 -237.833c-7.16541,4.49771 -14.1676,7.9988 -20.9979,10.1682 -6.83463,2.33262 -13.6693,3.49679 -20.4996,3.49679 -14.6702,0 -26.0025,-3.9994 -34.1689,-11.9982 -8.16633,-7.9988 -12.1657,-18.3345 -12.1657,-30.9986 0,-11.6674 3.16601,-21.0022 9.49803,-27.8368 6.33632,-6.83034 13.6693,-10.1639 22.1664,-10.1639 10.834,0 21.3373,5.00032 31.5012,15.001 10.3357,10.1639 18.5021,27.4975 24.6665,52.3316z" />
         </glyph>
      </font>
</defs>
</svg>
